<?xml version="1.0" standalone="no"?>
<!DOCTYPE svg PUBLIC "-//W3C//DTD SVG 1.1//EN" "http://www.w3.org/Graphics/SVG/1.1/DTD/svg11.dtd" >
<svg xmlns="http://www.w3.org/2000/svg" xmlns:xlink="http://www.w3.org/1999/xlink" version="1.1">
<metadata>
Created by FontForge 20170731 at Wed Apr  4 08:42:14 2012
 By Aleksey,,,
Typeface (c) The scict.ir Corporation plc. Data (c) The scict.ir Corporation plc/Type Solutions Inc. 2007-2008. All Rights Reserved.Design by Hossein Zahedi.Calligraphy by Amir Falsafi
</metadata>
<defs>
<font id="IranNastaliq" horiz-adv-x="0" >
  <font-face 
    font-family="IranNastaliq"
    font-weight="400"
    font-stretch="normal"
    units-per-em="2048"
    panose-1="2 0 5 3 0 0 0 2 0 3"
    ascent="1638"
    descent="-410"
    x-height="928"
    cap-height="1232"
    bbox="-636.538 -2444.14 5827.28 3010.63"
    underline-thickness="60"
    underline-position="-160"
    unicode-range="U+0020-FFFC"
  />
<missing-glyph horiz-adv-x="2048" 
 />
    <glyph glyph-name="afii64184" unicode="&#xfedf;&#xfee0;&#x651;&#x670;&#xfeea;" horiz-adv-x="1437" arabic-form="isolated" 
d="M1322 609q1 28 2 45q1 8 4 16.5t5 13.5q21 39 43 80t38.5 67.5t25 36.5t10.5 0q-1 -7 -1 -14q-3 -122 -31.5 -257.5t-84.5 -247t-135 -187.5q-86 -67 -164 -64q-23 1 -48 7.5t-47.5 20t-39 33.5t-22.5 49q-25 -32 -54.5 -62t-63.5 -52.5t-73 -33.5t-83 -6q-42 6 -77 24
t-61 44t-43 58.5t-23 68.5q-30 -18 -152 -108.5t-182 -115.5q-37 -15 -52 -14q-11 1 -9.5 7t9.5 11q77 56 265 231q203 189 276 290q10 8 18 3.5t10 -11.5q-9 -57 9 -99q20 -47 74.5 -71.5t120.5 -13.5q34 6 65 25.5t57 48.5t47 67t35 82q3 9 9.5 13t12.5 3.5t10.5 -5.5
t2.5 -14q-22 -125 19.5 -161.5t96.5 -36.5q24 -1 52.5 7.5t54.5 25t46 40.5t26 53q2 30 2 103z" />
    <glyph glyph-name="afii62834" unicode="&#xfedf;&#xfe82;" horiz-adv-x="663" arabic-form="isolated" 
d="M583 686q0 -59 -18 -159t-31 -142t-35.5 -102.5t-63.5 -124t-105.5 -112.5t-138.5 -49q-39 0 -65.5 21.5t-47.5 60.5q-17 34 -19 70q-1 9 2.5 11t7.5 3q28 8 44 41q19 39 29 82t14 103t4 103v87q0 45 1 94q3 128 29 280q18 104 94 283q12 25 19.5 24t5.5 -14
q-34 -116 -36.5 -373t-10 -340.5t-31.5 -160.5q-34 -114 -92 -203q42 0 83.5 5t79.5 19.5t71 41.5t57 73t38 112.5t15 160.5q0 69 -1 175.5t4 195.5t43.5 215t78.5 222q7 15 11.5 11t0.5 -45q-22 -169 -22 -222zM476 1882q51 -5 98.5 -2.5t96.5 17.5t100 44.5t109 79.5
q12 10 25.5 24t26 27t22.5 21.5t14 8.5q9 1 11 -14.5t-10 -38.5q-24 -48 -67.5 -112.5t-95.5 -116.5q-96 -97 -182 -143.5t-206 -51.5q-53 0 -94 2.5t-110.5 -1t-129 -29.5t-104.5 -57q-7 -2 -13.5 -1.5t-8.5 4.5q-3 4 11 32q18 40 65.5 96.5t124 114t146 79t171.5 17.5z
" />
    <glyph glyph-name="afii62835" unicode="&#xfee0;&#xfe82;" horiz-adv-x="636" arabic-form="final" 
d="M634 686q-2 -59 -20 -159t-31.5 -142t-41 -102.5t-68.5 -124t-105.5 -112.5t-138.5 -49q-39 0 -65.5 21.5t-47.5 60.5q-17 34 -19 70q-1 9 2.5 11t7.5 3q28 8 44 41q19 39 29 82t14 103t4 103v87q0 45 1 94q3 128 29 280q18 104 94 283q12 25 19.5 24t5.5 -14
q-34 -116 -36.5 -373t-10 -340.5t-31.5 -160.5q-34 -114 -92 -203q42 0 82.5 5t77 19.5t67.5 41.5t53.5 73t35 112.5t13.5 160.5q0 69 -1 175.5t6 195.5t51 215t84 222q7 15 11.5 11t0.5 -45q-22 -169 -19 -222zM504 1920q51 -5 98.5 -2.5t96.5 17.5t100 44.5t109 79.5
q12 10 25.5 24t26 27t22.5 21.5t14 8.5q9 1 11 -14.5t-10 -38.5q-24 -48 -67.5 -112.5t-95.5 -116.5q-96 -97 -182 -143.5t-206 -51.5q-53 0 -94 2.5t-110.5 -1t-129 -29.5t-104.5 -57q-7 -2 -13.5 -1.5t-8.5 4.5q-3 4 11 32q18 40 65.5 96.5t124 114t146 79t171.5 17.5z
" />
    <glyph glyph-name="afii62836" unicode="&#xfedf;&#xfe84;" horiz-adv-x="663" arabic-form="isolated" 
d="M583 686q0 -59 -18 -159t-31 -142t-35.5 -102.5t-63.5 -124t-105.5 -112.5t-138.5 -49q-39 0 -65.5 21.5t-47.5 60.5q-17 34 -19 70q-1 9 2.5 11t7.5 3q28 8 44 41q19 39 29 82t14 103t4 103v87q0 45 1 94q3 128 29 280q18 104 94 283q12 25 19.5 24t5.5 -14
q-34 -116 -36.5 -373t-10 -340.5t-31.5 -160.5q-34 -114 -92 -203q42 0 83.5 5t79.5 19.5t71 41.5t57 73t38 112.5t15 160.5q0 69 -1 175.5t4 195.5t43.5 215t78.5 222q7 15 11.5 11t0.5 -45q-22 -169 -22 -222zM159 1395q-21 -15 -28 -14.5t-1 14.5t25 36.5t42 46.5l9 9v3
q-23 9 -46.5 23t-21.5 23q1 23 75 96q40 44 41 44q33 26 62 22q16 -1 29.5 -13t11.5 -30q-1 -12 -11 -21t-22 -8q-2 0 -14 8t-28 9q-15 3 -34 -10t-19 -20q-2 -20 19.5 -32.5t49.5 -14.5q18 -3 57 12q24 8 57 27q9 4 12.5 2t2.5 -8q-2 -13 -77.5 -58.5t-130 -95.5t-60.5 -50
z" />
    <glyph glyph-name="afii62837" unicode="&#xfee0;&#xfe84;" horiz-adv-x="636" arabic-form="final" 
d="M634 686q-2 -59 -20 -159t-31.5 -142t-41 -102.5t-68.5 -124t-105.5 -112.5t-138.5 -49q-39 0 -65.5 21.5t-47.5 60.5q-17 34 -19 70q-1 9 2.5 11t7.5 3q28 8 44 41q19 39 29 82t14 103t4 103v87q0 45 1 94q3 128 29 280q18 104 94 283q12 25 19.5 24t5.5 -14
q-34 -116 -36.5 -373t-10 -340.5t-31.5 -160.5q-34 -114 -92 -203q42 0 82.5 5t77 19.5t67.5 41.5t53.5 73t35 112.5t13.5 160.5q0 69 -1 175.5t6 195.5t51 215t84 222q7 15 11.5 11t0.5 -45q-22 -169 -19 -222zM252 1429q-21 -15 -28 -14.5t-1 14.5t25 36.5t42 46.5l9 9v3
q-23 9 -46.5 23t-21.5 23q1 23 75 96q40 44 41 44q33 26 62 22q16 -1 29.5 -13t11.5 -30q-1 -12 -11 -21t-22 -8q-2 0 -14 8t-28 9q-15 3 -34 -10t-19 -20q-2 -20 19.5 -32.5t49.5 -14.5q18 -3 57 12q24 8 57 27q9 4 12.5 2t2.5 -8q-2 -13 -77.5 -58.5t-130 -95.5t-60.5 -50
z" />
    <glyph glyph-name="afii62838" unicode="&#xfedf;&#xfe88;" horiz-adv-x="646" arabic-form="isolated" 
d="M583 686q0 -59 -18 -159t-31 -142t-35.5 -102.5t-63.5 -124t-105.5 -112.5t-138.5 -49q-39 0 -65.5 21.5t-47.5 60.5q-17 34 -19 70q-1 9 2.5 11t7.5 3q28 8 44 41q19 39 29 82t14 103t4 103v87q0 45 1 94q3 128 29 280q18 104 94 283q12 25 19.5 24t5.5 -14
q-34 -116 -36.5 -373t-10 -340.5t-31.5 -160.5q-34 -114 -92 -203q42 0 83.5 5t79.5 19.5t71 41.5t57 73t38 112.5t15 160.5q0 69 -1 175.5t4 195.5t43.5 215t78.5 222q7 15 11.5 11t0.5 -45q-22 -169 -22 -222zM55 -426q-21 -15 -28 -14.5t-1 14.5t25 36.5t42 46.5l9 9v3
q-23 9 -46.5 23t-21.5 23q1 23 75 96q40 44 41 44q33 26 62 22q16 -1 29.5 -13t11.5 -30q-1 -12 -11 -21t-22 -8q-2 0 -14 8t-28 9q-15 3 -34 -10t-19 -20q-2 -20 19.5 -32.5t49.5 -14.5q18 -3 57 12q24 8 57 27q9 4 12.5 2t2.5 -8q-2 -13 -77.5 -58.5t-130 -95.5t-60.5 -50
z" />
    <glyph glyph-name="afii62839" unicode="&#xfee0;&#xfe88;" horiz-adv-x="636" arabic-form="final" 
d="M634 686q-2 -59 -20 -159t-31.5 -142t-41 -102.5t-68.5 -124t-105.5 -112.5t-138.5 -49q-39 0 -65.5 21.5t-47.5 60.5q-17 34 -19 70q-1 9 2.5 11t7.5 3q28 8 44 41q19 39 29 82t14 103t4 103v87q0 45 1 94q3 128 29 280q18 104 94 283q12 25 19.5 24t5.5 -14
q-34 -116 -36.5 -373t-10 -340.5t-31.5 -160.5q-34 -114 -92 -203q42 0 82.5 5t77 19.5t67.5 41.5t53.5 73t35 112.5t13.5 160.5q0 69 -1 175.5t6 195.5t51 215t84 222q7 15 11.5 11t0.5 -45q-22 -169 -19 -222zM113 -406q-21 -15 -28 -14.5t-1 14.5t25 36.5t42 46.5l9 9v3
q-23 9 -46.5 23t-21.5 23q1 23 75 96q40 44 41 44q33 26 62 22q16 -1 29.5 -13t11.5 -30q-1 -12 -11 -21t-22 -8q-2 0 -14 8t-28 9q-15 3 -34 -10t-19 -20q-2 -20 19.5 -32.5t49.5 -14.5q18 -3 57 12q24 8 57 27q9 4 12.5 2t2.5 -8q-2 -13 -77.5 -58.5t-130 -95.5t-60.5 -50
z" />
    <glyph glyph-name="afii62840" unicode="&#xfedf;&#x640;&#xfe8e;" horiz-adv-x="663" arabic-form="isolated" 
d="M583 686q0 -59 -18 -159t-31 -142t-35.5 -102.5t-63.5 -124t-105.5 -112.5t-138.5 -49q-39 0 -65.5 21.5t-47.5 60.5q-17 34 -19 70q-1 9 2.5 11t7.5 3q28 8 44 41q19 39 29 82t14 103t4 103v87q0 45 1 94q3 128 29 280q18 104 94 283q12 25 19.5 24t5.5 -14
q-34 -116 -36.5 -373t-10 -340.5t-31.5 -160.5q-34 -114 -92 -203q42 0 83.5 5t79.5 19.5t71 41.5t57 73t38 112.5t15 160.5q0 69 -1 175.5t4 195.5t43.5 215t78.5 222q7 15 11.5 11t0.5 -45q-22 -169 -22 -222z" />
    <glyph glyph-name="afii62841" unicode="&#xfee0;&#xfe8e;" horiz-adv-x="636" arabic-form="final" 
d="M634 686q-2 -59 -20 -159t-31.5 -142t-41 -102.5t-68.5 -124t-105.5 -112.5t-138.5 -49q-39 0 -65.5 21.5t-47.5 60.5q-17 34 -19 70q-1 9 2.5 11t7.5 3q28 8 44 41q19 39 29 82t14 103t4 103v87q0 45 1 94q3 128 29 280q18 104 94 283q12 25 19.5 24t5.5 -14
q-34 -116 -36.5 -373t-10 -340.5t-31.5 -160.5q-34 -114 -92 -203q42 0 82.5 5t77 19.5t67.5 41.5t53.5 73t35 112.5t13.5 160.5q0 69 -1 175.5t6 195.5t51 215t84 222q7 15 11.5 11t0.5 -45q-22 -169 -19 -222z" />
    <glyph glyph-name="LamHa" unicode="&#xfedf;&#xfeea;" horiz-adv-x="876" 
d="M849 1437l-14 -231q-4 -104 -9 -230q-1 -63 -2 -125t-1 -124q0 -103 -27 -216q-30 -112 -67 -198q-57 -123 -120 -199q-99 -117 -212 -117q-28 0 -70 15q-44 16 -68 16q-48 0 -96 -25q-16 -9 -58 -39l-41 -36q-21 -17 -36 -8q-16 8 3 50q5 9 26 42q28 57 79 120
q24 30 41.5 53t29.5 38q33 44 91 78q57 30 99 30q24 0 65 -10q39 -11 55 -11q72 6 113 41q40 36 58 82q9 21 12 48q3 20 3 65v30.5v33.5q-3 18 -3 29l-3 285q0 91 5 171q3 75 16 106q14 29 45 122q41 111 63 159q12 15 20 13q9 -4 9 -25z" />
    <glyph glyph-name="TaHa" unicode="&#xfec3;&#xfeea;" horiz-adv-x="1227" 
d="M1125 556q0 18 -47 30q-51 12 -94 12q-36 0 -71 -16q-34 -18 -67 -63l-129 -185q178 0 313 111q41 35 95 111zM846 616q84 108 108 129q73 68 156 68q49 0 84 -32q33 -33 33 -100q0 -89 -56 -200q-52 -105 -150 -234q-96 -126 -208 -186q-117 -61 -225 -61q-17 0 -89 15
q-69 16 -129 16q-63 0 -132 -37q-4 -5 -85 -53q-32 -21 -51 -30q-14 -7 -23 0q-13 8 -1 35q10 27 40 63q98 123 143 169q64 69 120 111q52 42 102 54q42 12 69 12q21 0 55 -6q48 -6 45 -6q12 15 29 41q4 10 11 22t14 26q15 28 30 61q12 27 29 83q13 46 18 112q4 68 4 125
q0 189 38 292l123 291q7 11 12 11q6 1 9 4q9 0 9 -24q0 -28 -6 -52q-8 -33 -14 -61.5t-9 -51.5q-9 -42 -15 -126q-4 -40 -8.5 -82t-9.5 -87q-10 -102 -16 -129t-38 -129q-16 -48 -16 -53z" />
    <glyph glyph-name="SinHa" unicode="&#xfeb3;&#xfeea;" horiz-adv-x="1345" 
d="M1324 553q-21 -63 -45 -112q-24 -51 -57 -86q-34 -34 -64 -45q-26 -12 -60 -19q-26 -18 -44 -31t-27 -20q-42 -32 -76 -29l-59 6q-48 0 -93 -30q5 3 -79 -67q-90 -78 -95 -80q-61 -40 -138 -40q-54 0 -114 28q-61 27 -100 27q-59 0 -123 -31q-134 -65 -135 -60
q-18 13 51 94q70 84 157 153q59 44 138 81q80 39 123 39q42 0 95 -24q57 -25 96 -25q58 0 99 16q37 15 72 45q22 27 49 47q36 27 62 27q9 0 37 -11q32 -10 36 -10q56 0 95 58q30 48 40 62q20 -6 41 -6q18 0 34 9q15 7 47 66q28 57 37 57q17 0 17 -23q0 -19 -17 -66z" />
    <glyph glyph-name="HeHa" unicode="&#xfea3;&#xfeea;" horiz-adv-x="1132" 
d="M1108 636q0 -32 -21 -71q-16 -39 -33 -54q-13 -12 -31 -22q-47 -36 -77 -62q-54 -58 -85 -96q-11 -13 -53 -70q-87 -116 -144 -165q-108 -96 -228 -96q-28 0 -85 19q-53 21 -71 21q-43 5 -87 -16q-42 -20 -105 -68q-60 -45 -75 -45q-13 0 -9 21q3 18 38 74l36 50t34 49
q42 52 87 97q51 53 123 96q72 42 126 42q18 0 72 -18q27 -9 57 -9q102 0 188 75q87 75 87 104q-32 16 -56.5 27.5t-42.5 20.5q-35 16 -65 16q-34 0 -70 -25q-12 -9 -45 -47q-27 -36 -44 -27q-9 2 -3 23q5 18 18 42q45 75 68 97q58 62 120 62q31 0 115 -35q90 -36 123 -36
q32 0 48 8q9 4 39 22q21 14 33 14q18 0 18 -18z" />
    <glyph glyph-name="BeHa" unicode="&#xfe91;&#xfeea;" horiz-adv-x="684" 
d="M219 246q28 25 70 45q35 18 71 16q57 -10 96 -10q48 -3 84 15q34 15 55 51q9 13 19 27.5t25.5 36t26.5 21.5q13 0 13 -24q0 -57 -67 -187q-36 -77 -78 -126q-62 -71 -141 -99q-21 -9 -65 -9q-9 0 -57 6q-34 6 -55 6q-65 0 -125 -51q-12 -12 -43 -36q-20 -17 -33 -14
q-15 6 1 53q17 42 47 91q42 62 81 110q34 45 75 78zM457 -574q-6 25 -19.5 45.5t-31.5 38t-39 32.5t-42 27q-8 5 -15 5.5t-14 -9.5l-160 -244q-5 -9 -5.5 -13.5t6.5 -9.5q42 -26 77 -56t71 -59q5 -6 16 -2.5t23 11.5t23 17t16 15q17 17 32.5 35.5t29.5 41.5q23 34 31.5 65
t0.5 60z" />
    <glyph glyph-name="ZadHa" unicode="&#xfebf;&#xfeea;" horiz-adv-x="1579" 
d="M1345 720q-37 0 -88 -47q-23 -18 -135 -168q0 -7 33 -7q34 0 82 7q38 3 81 24q59 26 102 69q41 38 48 72q2 15 -43 32q-45 18 -80 18zM184 222q72 76 111 105q84 61 167 61q42 0 73 -12q83 -37 107 -37q63 0 103 24q42 25 78 70q51 63 59 68q40 40 70 40q17 0 53 -16
q30 -17 58 -17l104 144q81 108 99 126q94 107 165 107q63 0 102 -39q27 -32 27 -71q0 -114 -84 -252q-86 -138 -177 -196q-105 -74 -218 -74q-90 0 -150 30q-45 21 -64 35q-33 0 -80 -74q-57 -81 -99 -126q-87 -102 -211 -102q-51 0 -105 32q-54 30 -95 30q-55 0 -129 -45
q-57 -33 -150 -93q-22 15 30 97q62 86 156 185zM1390 1464q8 -29 -0.5 -60t-31.5 -65q-14 -23 -29.5 -41.5t-32.5 -35.5q-5 -6 -16 -15t-23 -17t-23 -11.5t-16 2.5q-36 29 -71 59t-77 56q-7 5 -6.5 9.5t5.5 13.5l160 244q7 10 14 9.5t15 -5.5q21 -12 42 -27t39 -32.5
t31.5 -38t19.5 -45.5z" />
    <glyph glyph-name="GheinHa" unicode="&#xfecf;&#xfeea;" horiz-adv-x="1137" 
d="M868 172q-193 -163 -337 -163q-59 0 -123 31q-68 30 -120 30q-74 0 -155 -46q-85 -45 -91 -39q-15 15 22 61q57 74 200 197q37 36 109 79q86 50 144 50q48 0 92 -18q42 -17 48 -17q9 24 20 49l22 50q16 35 35 70t38 71q63 105 113 141q49 36 106 36q51 0 83 -24
q30 -25 30 -52q0 -65 -51 -65q-8 0 -35 14q-27 15 -67 15q-60 0 -104 -39q-40 -39 -40 -87q-8 -44 30 -66q39 -24 76 -30q69 -9 140 82q64 89 76 87q26 -13 -43 -138q-113 -193 -218 -279zM995 1361q8 -29 -0.5 -60t-31.5 -65q-14 -23 -29.5 -41.5t-32.5 -35.5
q-5 -6 -16 -15t-23 -17t-23 -11.5t-16 2.5q-36 29 -71 59t-77 56q-7 5 -6.5 9.5t5.5 13.5l160 244q7 10 14 9.5t15 -5.5q21 -12 42 -27t39 -32.5t31.5 -38t19.5 -45.5z" />
    <glyph glyph-name="ShinHa" unicode="&#xfeb7;&#xfeea;" horiz-adv-x="1345" 
d="M1324 553q-21 -63 -45 -112q-24 -51 -57 -86q-34 -34 -64 -45q-26 -12 -60 -19q-26 -18 -44 -31t-27 -20q-42 -32 -76 -29l-59 6q-48 0 -93 -30q5 3 -79 -67q-90 -78 -95 -80q-61 -40 -138 -40q-54 0 -114 28q-61 27 -100 27q-59 0 -123 -31q-134 -65 -135 -60
q-18 13 51 94q70 84 157 153q59 44 138 81q80 39 123 39q42 0 95 -24q57 -25 96 -25q58 0 99 16q37 15 72 45q22 27 49 47q36 27 62 27q9 0 37 -11q32 -10 36 -10q56 0 95 58q30 48 40 62q20 -6 41 -6q18 0 34 9q15 7 47 66q28 57 37 57q17 0 17 -23q0 -19 -17 -66z
M1312 1216q8 -28 -0.5 -58t-29.5 -62q-17 -26 -34.5 -48.5t-38.5 -42.5q-13 -14 -23 -20t-17 -7.5t-12 0.5t-9 5q-35 28 -68.5 56.5t-73.5 53.5q-5 7 -5 10.5t5 11.5l152 234q7 9 13.5 8.5t14.5 -5.5q20 -12 40.5 -25.5t37.5 -30.5t30 -36.5t18 -43.5zM1174 1577
q8 -28 -0.5 -58t-29.5 -62q-17 -26 -34.5 -48.5t-38.5 -42.5q-13 -14 -23 -20t-17 -7.5t-12 0.5t-9 5q-35 28 -68.5 56.5t-73.5 53.5q-5 7 -5 10.5t5 11.5l152 234q7 9 13.5 8.5t14.5 -5.5q20 -12 40.5 -25.5t37.5 -30.5t30 -36.5t18 -43.5zM996 1224q2 -5 3.5 -9t3.5 -9
l3 -9q0 -4 1 -6q0 -2 0.5 -4t0.5 -4t0.5 -3t0.5 -3q0 -19 -4 -35q0 -2 -0.5 -3t-0.5 -3l-4 -12l-3 -6q-1 -2 -1.5 -5t-2.5 -5l-6 -12l-12 -19l-17 -25q-5 -8 -11 -15.5t-12 -15.5l-16 -18t-17 -17l-10 -10l-5 -4q-12 -10 -20.5 -13t-14.5 -1q-4 1 -6.5 2.5t-4.5 3.5l-24 19
l-10 9l-59 48l-7 5q-21 16 -41 29q-6 5 -6 9.5t5 12.5l153 233q7 11 16 9l2 -1q1 0 5 -2q2 -2 4 -2q13 -8 26 -16.5t26 -17.5l11 -9q11 -9 20 -18t17 -20l6 -8l9 -16z" />
    <glyph glyph-name="ZaHa" unicode="&#xfec7;&#xfeea;" horiz-adv-x="1161" 
d="M1059 556q0 18 -47 30q-51 12 -94 12q-36 0 -71 -16q-34 -18 -67 -63l-129 -185q178 0 313 111q41 35 95 111zM780 616q84 108 108 129q73 68 156 68q49 0 84 -32q33 -33 33 -100q0 -89 -56 -200q-52 -105 -150 -234q-96 -126 -208 -186q-117 -61 -225 -61q-17 0 -89 15
q-69 16 -129 16q-63 0 -132 -37q-4 -5 -85 -53q-32 -21 -51 -30q-14 -7 -23 0q-13 8 -1 35q10 27 40 63q98 123 143 169q64 69 120 111q52 42 102 54q42 12 69 12q21 0 55 -6q48 -6 45 -6q12 15 29 41q4 10 11 22t14 26q15 28 30 61q12 27 29 83q13 46 18 112q4 68 4 125
q0 189 38 292l123 291q7 11 12 11q6 1 9 4q9 0 9 -24q0 -28 -6 -52q-8 -33 -14 -61.5t-11 -61t-15.5 -136.5t-15.5 -149q-10 -102 -16 -129t-38 -129q-16 -48 -16 -53zM1363 1640q8 -29 -0.5 -60t-31.5 -65q-14 -23 -29.5 -41.5t-32.5 -35.5q-5 -6 -16 -15t-23 -17
t-23 -11.5t-16 2.5q-36 29 -71 59t-77 56q-7 5 -6.5 9.5t5.5 13.5l160 244q7 10 14 9.5t15 -5.5q21 -12 42 -27t39 -32.5t31.5 -38t19.5 -45.5z" />
    <glyph glyph-name="GhafHa" unicode="&#xfed7;&#xfeea;" horiz-adv-x="943" 
d="M192 205q54 63 111 102q79 53 156 53q40 0 82 -11q38 -9 47 -9q75 0 144 44q67 42 67 76q0 15 -39 50q-7 6 -22 18q-20 -12 -24 -12q-33 -15 -59 -15q-55 0 -88 27q-35 27 -35 85q0 6 80 194q19 46 51 88q27 32 57 32q78 0 151 -75q72 -77 72 -198q0 -98 -57 -234
q-52 -117 -106 -195q-65 -90 -134 -149q-94 -76 -190 -76q-38 0 -89 18q-51 19 -90 19q-54 0 -103 -28q-35 -20 -74 -57q-43 -39 -61 -26q-17 9 -17 24q0 21 26 59q28 45 69 99q55 76 75 97zM1036 1579q8 -28 -0.5 -58t-29.5 -62q-17 -26 -34.5 -48.5t-38.5 -42.5
q-13 -14 -23 -20t-17 -7.5t-12 0.5t-9 5q-35 28 -68.5 56.5t-73.5 53.5q-5 7 -5 10.5t5 11.5l152 234q7 9 13.5 8.5t14.5 -5.5q20 -12 40.5 -25.5t37.5 -30.5t30 -36.5t18 -43.5zM730 1560q0 -4 1 -6q0 -3 1 -5q0 -2 0.5 -4.5t0.5 -4.5v-14q0 -2 -0.5 -4.5t-0.5 -4.5l-3 -12
q0 -2 -0.5 -3t-0.5 -3l-4 -12q-2 -4 -3.5 -8t-3.5 -8q0 -1 -0.5 -1.5t-0.5 -1.5l-5 -9q-2 -5 -5 -8.5t-5 -7.5q-2 -2 -2 -3l-12 -18l-5 -7q-2 -2 -3.5 -5t-3.5 -5q-4 -6 -7 -9l-16 -20q-2 -2 -2 -3q-2 -2 -4.5 -5t-5.5 -5l-6 -6q-3 -5 -8 -8l-10 -10l-5 -4q-11 -9 -19 -12
l-6 -2h-7q-8 0 -14 6q-22 17 -42.5 35t-43.5 35q-7 6 -14 11q-21 16 -41 29q-1 0 -1 1q-5 5 -5 9t5 12l153 233q0 1 1 2q7 9 15 7l2 -1q1 0 2 -1l7 -3q2 -2 4 -2.5t4 -2.5l4 -2t4 -3q4 -2 8 -5q6 -4 12 -7.5t12 -8.5l4 -3q16 -12 33 -29l12 -14l9 -12q7 -10 11 -20
q2 -3 4 -9l3 -9q1 -1 1 -2t1 -3q0 -3 1 -4z" />
    <glyph glyph-name="TeHa" unicode="&#xfe97;&#xfeea;" horiz-adv-x="684" 
d="M219 249q28 24 64.5 42t77.5 15q56 -7 99.5 -9.5t79.5 15.5q34 15 60 54t40.5 60.5t25.5 21.5q13 0 13 -24q0 -57 -51.5 -160.5t-93.5 -152.5q-62 -71 -106 -89.5t-100 -18.5q-9 0 -57 6q-34 6 -55 6q-65 0 -127 -51q-61 -53 -74 -50q-18 6 1 53q17 42 47 91
q39 62 77 108.5t79 82.5zM908 1144q8 -28 -0.5 -58t-29.5 -62q-17 -26 -34.5 -48.5t-38.5 -42.5q-13 -14 -23 -20t-17 -7.5t-12 0.5t-9 5q-35 28 -68.5 56.5t-73.5 53.5q-5 7 -5 10.5t5 11.5l152 234q7 9 13.5 8.5t14.5 -5.5q20 -12 40.5 -25.5t37.5 -30.5t30 -36.5
t18 -43.5zM602 1125q0 -4 1 -6q0 -3 1 -5q0 -2 0.5 -4.5t0.5 -4.5v-14q0 -2 -0.5 -4.5t-0.5 -4.5l-3 -12q0 -2 -0.5 -3t-0.5 -3l-4 -12q-2 -4 -3.5 -8t-3.5 -8q0 -1 -0.5 -1.5t-0.5 -1.5l-5 -9q-2 -5 -5 -8.5t-5 -7.5q-2 -2 -2 -3l-12 -18l-5 -7q-2 -2 -3.5 -5t-3.5 -5
q-4 -6 -7 -9l-16 -20q-2 -2 -2 -3q-2 -2 -4.5 -5t-5.5 -5l-6 -6q-3 -5 -8 -8l-10 -10l-5 -4q-11 -9 -19 -12l-6 -2h-7q-8 0 -14 6q-22 17 -42.5 35t-43.5 35q-7 6 -14 11q-21 16 -41 29q-1 0 -1 1q-5 5 -5 9t5 12l153 233q0 1 1 2q7 9 15 7l2 -1q1 0 2 -1l7 -3q2 -2 4 -2.5
t4 -2.5l4 -2t4 -3q4 -2 8 -5q6 -4 12 -7.5t12 -8.5l4 -3q16 -12 33 -29l12 -14l9 -12q7 -10 11 -20q2 -3 4 -9l3 -9q1 -1 1 -2t1 -3q0 -3 1 -4z" />
    <glyph glyph-name="SeHa" unicode="&#xfe9b;&#xfeea;" horiz-adv-x="684" 
d="M219 249q28 24 64.5 42t77.5 15q56 -7 99.5 -9.5t79.5 15.5q34 15 60 54t40.5 60.5t25.5 21.5q13 0 13 -24q0 -57 -51.5 -160.5t-93.5 -152.5q-62 -71 -106 -89.5t-100 -18.5q-9 0 -57 6q-34 6 -55 6q-65 0 -127 -51q-61 -53 -74 -50q-18 6 1 53q17 42 47 91
q39 62 77 108.5t79 82.5zM945 1129q8 -28 -0.5 -58t-29.5 -62q-17 -26 -34.5 -48.5t-38.5 -42.5q-13 -14 -23 -20t-17 -7.5t-12 0.5t-9 5q-35 28 -68.5 56.5t-73.5 53.5q-5 7 -5 10.5t5 11.5l152 234q7 9 13.5 8.5t14.5 -5.5q20 -12 40.5 -25.5t37.5 -30.5t30 -36.5
t18 -43.5zM807 1490q8 -28 -0.5 -58t-29.5 -62q-17 -26 -34.5 -48.5t-38.5 -42.5q-13 -14 -23 -20t-17 -7.5t-12 0.5t-9 5q-35 28 -68.5 56.5t-73.5 53.5q-5 7 -5 10.5t5 11.5l152 234q7 9 13.5 8.5t14.5 -5.5q20 -12 40.5 -25.5t37.5 -30.5t30 -36.5t18 -43.5zM629 1137
q2 -5 3.5 -9t3.5 -9l3 -9q0 -4 1 -6q0 -2 0.5 -4t0.5 -4t0.5 -3t0.5 -3q0 -19 -4 -35q0 -2 -0.5 -3t-0.5 -3l-4 -12l-3 -6q-1 -2 -1.5 -5t-2.5 -5l-6 -12l-12 -19l-17 -25q-5 -8 -11 -15.5t-12 -15.5l-16 -18t-17 -17l-10 -10l-5 -4q-12 -10 -20.5 -13t-14.5 -1
q-4 1 -6.5 2.5t-4.5 3.5l-24 19l-10 9l-59 48l-7 5q-21 16 -41 29q-6 5 -6 9.5t5 12.5l153 233q7 11 16 9l2 -1q1 0 5 -2q2 -2 4 -2q13 -8 26 -16.5t26 -17.5l11 -9q11 -9 20 -18t17 -20l6 -8l9 -16z" />
    <glyph glyph-name="PeHa" unicode="&#xfb58;&#xfeea;" horiz-adv-x="684" 
d="M219 249q28 24 64.5 42t77.5 15q56 -7 99.5 -9.5t79.5 15.5q34 15 60 54t40.5 60.5t25.5 21.5q13 0 13 -24q0 -57 -51.5 -160.5t-93.5 -152.5q-62 -71 -106 -89.5t-100 -18.5q-9 0 -57 6q-34 6 -55 6q-65 0 -127 -51q-61 -53 -74 -50q-18 6 1 53q17 42 47 91
q39 62 77 108.5t79 82.5zM812 -643q-5 24 -18 43.5t-30 36.5t-37.5 30.5t-40.5 25.5q-8 5 -14.5 5.5t-13.5 -8.5l-152 -234q-5 -8 -5 -11.5t5 -10.5q40 -25 73.5 -53.5t68.5 -56.5q4 -3 9 -5t12 -0.5t17 7.5t23 20q21 20 38.5 42.5t34.5 48.5q21 32 29.5 62t0.5 58z
M639 -1031q-5 24 -18 43.5t-30 36.5t-37.5 30.5t-40.5 25.5q-8 5 -14.5 5.5t-13.5 -8.5l-152 -234q-5 -8 -5 -11.5t5 -10.5q40 -25 73.5 -53.5t68.5 -56.5q4 -3 9 -5t12 -0.5t17 7.5t23 20q21 20 38.5 42.5t34.5 48.5q21 32 29.5 62t0.5 58zM506 -662l-3 10l-3 9
q-1 3 -2.5 6t-3.5 6q-9 17 -18 28l-6 7l-17 18l-22 18l-4 3q-6 5 -12 9l-12 8l-8 5l-16 9l-4 2l-3 2q-1 0 -2 1q-8 2 -12 -2l-3 -3l-3 -4l-153 -233q-5 -8 -5 -12.5t6 -9.5q11 -7 21 -13.5t20 -14.5l7 -6q15 -11 30 -23.5t29 -24.5l10 -8q8 -8 17 -14l7 -6q6 -6 14 -6
q5 -1 13 2q2 1 3.5 1.5t3.5 2.5q10 5 27 22q4 4 7.5 7t6.5 7l12 13l7 9l9 11q2 2 3.5 5t3.5 5q3 3 7 9q3 4 5.5 7.5t4.5 7.5q2 3 3.5 5.5t3.5 4.5l12 19l5 10l3 6l2 6q3 6 4.5 12t3.5 12l2 6l2 15v15q0 2 -0.5 2.5t-0.5 2.5z" />
    <glyph glyph-name="NeHa" unicode="&#xfee7;&#xfeea;" horiz-adv-x="684" 
d="M219 249q28 24 64.5 42t77.5 15q56 -7 99.5 -9.5t79.5 15.5q34 15 60 54t40.5 60.5t25.5 21.5q13 0 13 -24q0 -57 -51.5 -160.5t-93.5 -152.5q-62 -71 -106 -89.5t-100 -18.5q-9 0 -57 6q-34 6 -55 6q-65 0 -127 -51q-61 -53 -74 -50q-18 6 1 53q17 42 47 91
q39 62 77 108.5t79 82.5zM704 1050q8 -29 -0.5 -60t-31.5 -65q-14 -23 -29.5 -41.5t-32.5 -35.5q-5 -6 -16 -15t-23 -17t-23 -11.5t-16 2.5q-36 29 -71 59t-77 56q-7 5 -6.5 9.5t5.5 13.5l160 244q7 10 14 9.5t15 -5.5q21 -12 42 -27t39 -32.5t31.5 -38t19.5 -45.5z" />
    <glyph glyph-name="YeHa" unicode="&#xfbfe;&#xfeea;" horiz-adv-x="684" 
d="M219 249q28 24 64.5 42t77.5 15q56 -7 99.5 -9.5t79.5 15.5q34 15 60 54t40.5 60.5t25.5 21.5q13 0 13 -24q0 -57 -51.5 -160.5t-93.5 -152.5q-62 -71 -106 -89.5t-100 -18.5q-9 0 -57 6q-34 6 -55 6q-65 0 -127 -51q-61 -53 -74 -50q-18 6 1 53q17 42 47 91
q39 62 77 108.5t79 82.5zM726 -739q-5 24 -18 43.5t-30 36.5t-37.5 30.5t-40.5 25.5q-8 5 -14.5 5.5t-13.5 -8.5l-152 -234q-5 -8 -5 -11.5t5 -10.5q40 -25 73.5 -53.5t68.5 -56.5q4 -3 9 -5t12 -0.5t17 7.5t23 20q21 20 38.5 42.5t34.5 48.5q21 32 29.5 62t0.5 58z
M420 -758q-1 1 -1 4q-1 2 -1 3t-1 2l-3 9q-2 6 -4 9q-4 10 -11 20l-9 12l-12 14q-8 8 -16 15t-17 14l-4 3q-6 5 -12 8.5t-12 7.5q-4 3 -8 5q-2 2 -4 3l-4 2q-2 2 -4 2.5t-4 2.5l-7 3q-1 1 -2 1l-2 1q-8 2 -15 -7q-1 -1 -1 -2l-153 -233q-5 -8 -5 -12t5 -9q0 -1 1 -1
q20 -13 41 -29q7 -5 14 -11q23 -17 43.5 -35t42.5 -35q6 -6 14 -6h7l6 2q8 3 19 12l5 4l10 10q5 3 8 8l6 6q3 2 5.5 5t4.5 5q0 1 2 3l16 20q3 3 7 9q2 2 3.5 5t3.5 5l5 7l12 18q0 1 2 3q2 4 5 7.5t5 8.5l5 9q0 1 0.5 1.5t0.5 1.5q2 4 3.5 8t3.5 8l4 12q0 2 0.5 3t0.5 3l3 12
q0 2 0.5 4.5t0.5 4.5v14q0 2 -0.5 4.5t-0.5 4.5q-1 2 -1 5q-1 2 -1 6z" />
    <glyph glyph-name="EeHa" unicode="&#xfe8b;&#xfeea;" horiz-adv-x="684" 
d="M219 249q28 24 64.5 42t77.5 15q56 -7 99.5 -9.5t79.5 15.5q34 15 60 54t40.5 60.5t25.5 21.5q13 0 13 -24q0 -57 -51.5 -160.5t-93.5 -152.5q-62 -71 -106 -89.5t-100 -18.5q-9 0 -57 6q-34 6 -55 6q-65 0 -127 -51q-61 -53 -74 -50q-18 6 1 53q17 42 47 91
q39 62 77 108.5t79 82.5zM364 871q-21 -15 -28 -14.5t-1 14.5t25 36.5t42 46.5l9 9v3q-23 9 -46.5 23t-21.5 23q1 23 75 96q40 44 41 44q33 26 62 22q16 -1 29.5 -13t11.5 -30q-1 -12 -11 -21t-22 -8q-2 0 -14 8t-28 9q-15 3 -34 -10t-19 -20q-2 -20 19.5 -32.5t49.5 -14.5
q18 -3 57 12q24 8 57 27q9 4 12.5 2t2.5 -8q-2 -13 -77.5 -58.5t-130 -95.5t-60.5 -50z" />
    <glyph glyph-name="KheHa" unicode="&#xfea7;&#xfeea;" horiz-adv-x="1132" 
d="M1108 636q0 -32 -21 -71q-16 -39 -33 -54q-13 -12 -31 -22q-47 -36 -77 -62q-54 -58 -85 -96q-11 -13 -53 -70q-87 -116 -144 -165q-108 -96 -228 -96q-28 0 -85 19q-53 21 -71 21q-43 5 -87 -16q-42 -20 -105 -68q-60 -45 -75 -45q-13 0 -9 21q3 18 38 74l36 50t34 49
q42 52 87 97q51 53 123 96q72 42 126 42q18 0 72 -18q27 -9 57 -9q102 0 188 75q87 75 87 104q-32 16 -56.5 27.5t-42.5 20.5q-35 16 -65 16q-34 0 -70 -25q-12 -9 -45 -47q-27 -36 -44 -27q-9 2 -3 23q5 18 18 42q45 75 68 97q58 62 120 62q31 0 115 -35q90 -36 123 -36
q32 0 48 8q9 4 39 22q21 14 33 14q18 0 18 -18zM882 1368q8 -29 -0.5 -60t-31.5 -65q-14 -23 -29.5 -41.5t-32.5 -35.5q-5 -6 -16 -15t-23 -17t-23 -11.5t-16 2.5q-36 29 -71 59t-77 56q-7 5 -6.5 9.5t5.5 13.5l160 244q7 10 14 9.5t15 -5.5q21 -12 42 -27t39 -32.5
t31.5 -38t19.5 -45.5z" />
    <glyph glyph-name="JimHa" unicode="&#xfe9f;&#xfeea;" horiz-adv-x="1132" 
d="M1108 636q0 -32 -21 -71q-16 -39 -33 -54q-13 -12 -31 -22q-47 -36 -77 -62q-54 -58 -85 -96q-11 -13 -53 -70q-87 -116 -144 -165q-108 -96 -228 -96q-28 0 -85 19q-53 21 -71 21q-43 5 -87 -16q-42 -20 -105 -68q-60 -45 -75 -45q-13 0 -9 21q3 18 38 74l36 50t34 49
q42 52 87 97q51 53 123 96q72 42 126 42q18 0 72 -18q27 -9 57 -9q102 0 188 75q87 75 87 104q-32 16 -56.5 27.5t-42.5 20.5q-35 16 -65 16q-34 0 -70 -25q-12 -9 -45 -47q-27 -36 -44 -27q-9 2 -3 23q5 18 18 42q45 75 68 97q58 62 120 62q31 0 115 -35q90 -36 123 -36
q32 0 48 8q9 4 39 22q21 14 33 14q18 0 18 -18zM761 -708q-6 25 -19.5 45.5t-31.5 38t-39 32.5t-42 27q-8 5 -15 5.5t-14 -9.5l-160 -244q-5 -9 -5.5 -13.5t6.5 -9.5q42 -26 77 -56t71 -59q5 -6 16 -2.5t23 11.5t23 17t16 15q17 17 32.5 35.5t29.5 41.5q23 34 31.5 65
t0.5 60z" />
    <glyph glyph-name="CheHa" unicode="&#xfb7c;&#xfeea;" horiz-adv-x="1132" 
d="M1108 636q0 -32 -21 -71q-16 -39 -33 -54q-13 -12 -31 -22q-47 -36 -77 -62q-54 -58 -85 -96q-11 -13 -53 -70q-87 -116 -144 -165q-108 -96 -228 -96q-28 0 -85 19q-53 21 -71 21q-43 5 -87 -16q-42 -20 -105 -68q-60 -45 -75 -45q-13 0 -9 21q3 18 38 74l36 50t34 49
q42 52 87 97q51 53 123 96q72 42 126 42q18 0 72 -18q27 -9 57 -9q102 0 188 75q87 75 87 104q-32 16 -56.5 27.5t-42.5 20.5q-35 16 -65 16q-34 0 -70 -25q-12 -9 -45 -47q-27 -36 -44 -27q-9 2 -3 23q5 18 18 42q45 75 68 97q58 62 120 62q31 0 115 -35q90 -36 123 -36
q32 0 48 8q9 4 39 22q21 14 33 14q18 0 18 -18zM1146 -616q-5 24 -18 43.5t-30 36.5t-37.5 30.5t-40.5 25.5q-8 5 -14.5 5.5t-13.5 -8.5l-152 -234q-5 -8 -5 -11.5t5 -10.5q40 -25 73.5 -53.5t68.5 -56.5q4 -3 9 -5t12 -0.5t17 7.5t23 20q21 20 38.5 42.5t34.5 48.5
q21 32 29.5 62t0.5 58zM973 -1004q-5 24 -18 43.5t-30 36.5t-37.5 30.5t-40.5 25.5q-8 5 -14.5 5.5t-13.5 -8.5l-152 -234q-5 -8 -5 -11.5t5 -10.5q40 -25 73.5 -53.5t68.5 -56.5q4 -3 9 -5t12 -0.5t17 7.5t23 20q21 20 38.5 42.5t34.5 48.5q21 32 29.5 62t0.5 58zM840 -635
l-3 10l-3 9q-1 3 -2.5 6t-3.5 6q-9 17 -18 28l-6 7l-17 18l-22 18l-4 3q-6 5 -12 9l-12 8l-8 5l-16 9l-4 2l-3 2q-1 0 -2 1q-8 2 -12 -2l-3 -3l-3 -4l-153 -233q-5 -8 -5 -12.5t6 -9.5q11 -7 21 -13.5t20 -14.5l7 -6q15 -11 30 -23.5t29 -24.5l10 -8q8 -8 17 -14l7 -6
q6 -6 14 -6q5 -1 13 2q2 1 3.5 1.5t3.5 2.5q10 5 27 22q4 4 7.5 7t6.5 7l12 13l7 9l9 11q2 2 3.5 5t3.5 5q3 3 7 9q3 4 5.5 7.5t4.5 7.5q2 3 3.5 5.5t3.5 4.5l12 19l5 10l3 6l2 6q3 6 4.5 12t3.5 12l2 6l2 15v15q0 2 -0.5 2.5t-0.5 2.5z" />
    <glyph glyph-name="GafHa" unicode="&#xfb94;&#xfeea;" horiz-adv-x="886" 
d="M841 1437q-12 -133 -17 -328.5t-7 -257.5t-2 -124q0 -103 -25 -216q-28 -112 -67 -198q-56 -123 -120 -199q-99 -117 -212 -117q-27 0 -70 15q-42 16 -68 16q-46 0 -84.5 -17t-69.5 -47l-41 -36q-19 -17 -36 -8q-15 8 3 50q5 9 32 55.5t66.5 103.5t75.5 98t93 80
q41 25 99 24q26 0 65 -10q40 -11 54 -11q73 6 114 41q42 36 58 82q11 21 12 48q3 20 3 65q0 15 0.5 242t5.5 307q4 75 16 106q14 29 42 119.5t59 161.5q14 15 20 13q9 -4 9 -25q0 -6 -8 -33zM2124 2549q-35 -33 -120 -94.5t-285 -194.5q-7 -1 3.5 19t37.5 51
q47 37 141 103.5t256 177.5q32 16 -33 -62zM994 1687q63 48 125 87t125 81q873 589 1011 697q157 122 164 131q32 21 13.5 -24.5t-148.5 -205.5q-226 -204 -574 -436.5t-722 -453.5q-25 -17 -48.5 -31.5t-45.5 -26.5q-50 -30 -49 -4q0 11 67 101q42 53 82 85z" />
    <glyph glyph-name="HaHa" unicode="&#x6be;&#xfeea;" horiz-adv-x="1300" 
d="M1145 24q-150 -278 -150 -365q0 -9 48 -31q48 -21 48 -83q0 -43 -27 -81q-26 -37 -63 -37q-39 0 -57 36q-17 39 -17 82q0 110 92 297q93 188 126 182zM1300 633q0 -56 -39 -123q-48 -83 -120 -83q-21 0 -37 9q-42 27 -71 27q-61 0 -111 -91q-22 -47 -47 -92t-47 -90
q-125 -190 -288 -190q-32 0 -68 12q-76 28 -108 28q-60 0 -117 -28q-58 -29 -97 -63q-44 -38 -59 -42q-16 -9 -34 -2q-14 15 55 110q62 82 156 178q51 51 111 98q99 72 164 72q25 0 73 -11q53 -9 74 -9q103 0 165 87q28 50 47 85t28 55q19 39 51 72q51 52 93 52q25 0 52 -22
q35 -24 42 -30q15 22 33 64q17 36 23 36q34 0 55 -33q21 -36 21 -76z" />
    <glyph glyph-name="Ein_Re" unicode="&#xfecb;&#xfeae;" horiz-adv-x="1177" 
d="M379 414l-199 -287q-154 -209 -346 -324q-156 -96 -182 -73q6 12 8 24q74 49 121 84q112 92 159 141q97 99 191 248l186 277q76 110 150 172q51 43 114 76q-8 12 -24.5 34.5t-16.5 40.5q0 41 39 101q27 43 104 130t116 115q51 35 98 35q26 0 51 -25.5t25 -58.5
q0 -30 -16.5 -55t-45.5 -25q-24 13 -31 19q-14 14 -45 14q-49 0 -89 -35.5t-40 -64.5q0 -21 48.5 -41.5t111.5 -20.5q76 0 145 31q72 41 84 47q27 19 39 0q13 -16 -2 -37q-34 -49 -123 -125q-75 -67 -114 -89.5t-130 -64.5t-128 -61q-101 -51 -146 -84q-61 -47 -112 -118z
" />
    <glyph glyph-name="Ein_Ze" unicode="&#xfecb;&#xfeb0;" horiz-adv-x="1167" 
d="M379 414l-199 -287q-154 -209 -346 -324q-156 -96 -182 -73q6 12 8 24q74 49 121 84q112 92 159 141q97 99 191 248l186 277q76 110 150 172q51 43 114 76q-8 12 -24.5 34.5t-16.5 40.5q0 41 39 101q27 43 104 130t116 115q51 35 98 35q26 0 51 -25.5t25 -58.5
q0 -30 -16.5 -55t-45.5 -25q-24 13 -31 19q-14 14 -45 14q-49 0 -89 -35.5t-40 -64.5q0 -21 48.5 -41.5t111.5 -20.5q76 0 145 31q72 41 84 47q27 19 39 0q13 -16 -2 -37q-34 -49 -123 -125q-75 -67 -114 -89.5t-130 -64.5t-128 -61q-101 -51 -146 -84q-61 -47 -112 -118z
M485 1656q8 -29 -0.5 -60t-31.5 -65q-14 -23 -29.5 -41.5t-32.5 -35.5q-5 -6 -16 -15t-23 -17t-23 -11.5t-16 2.5q-36 29 -71 59t-77 56q-7 5 -6.5 9.5t5.5 13.5l160 244q7 10 14 9.5t15 -5.5q21 -12 42 -27t39 -32.5t31.5 -38t19.5 -45.5z" />
    <glyph glyph-name="Ghein_Re" unicode="&#xfecf;&#xfeae;" horiz-adv-x="1144" 
d="M379 414l-199 -287q-154 -209 -346 -324q-156 -96 -182 -73q6 12 8 24q74 49 121 84q112 92 159 141q97 99 191 248l186 277q76 110 150 172q51 43 114 76q-8 12 -24.5 34.5t-16.5 40.5q0 41 39 101q27 43 104 130t116 115q51 35 98 35q26 0 51 -25.5t25 -58.5
q0 -30 -16.5 -55t-45.5 -25q-24 13 -31 19q-14 14 -45 14q-49 0 -89 -35.5t-40 -64.5q0 -21 48.5 -41.5t111.5 -20.5q76 0 145 31q72 41 84 47q27 19 39 0q13 -16 -2 -37q-34 -49 -123 -125q-75 -67 -114 -89.5t-130 -64.5t-128 -61q-101 -51 -146 -84q-61 -47 -112 -118z
M971 1801q8 -29 -0.5 -60t-31.5 -65q-14 -23 -29.5 -41.5t-32.5 -35.5q-5 -6 -16 -15t-23 -17t-23 -11.5t-16 2.5q-36 29 -71 59t-77 56q-7 5 -6.5 9.5t5.5 13.5l160 244q7 10 14 9.5t15 -5.5q21 -12 42 -27t39 -32.5t31.5 -38t19.5 -45.5z" />
    <glyph glyph-name="Ghein_Ze" unicode="&#xfecf;&#xfeb0;" horiz-adv-x="1173" 
d="M379 414l-199 -287q-154 -209 -346 -324q-156 -96 -182 -73q6 12 8 24q74 49 121 84q112 92 159 141q97 99 191 248l186 277q76 110 150 172q51 43 114 76q-8 12 -24.5 34.5t-16.5 40.5q0 41 39 101q27 43 104 130t116 115q51 35 98 35q26 0 51 -25.5t25 -58.5
q0 -30 -16.5 -55t-45.5 -25q-24 13 -31 19q-14 14 -45 14q-49 0 -89 -35.5t-40 -64.5q0 -21 48.5 -41.5t111.5 -20.5q76 0 145 31q72 41 84 47q27 19 39 0q13 -16 -2 -37q-34 -49 -123 -125q-75 -67 -114 -89.5t-130 -64.5t-128 -61q-101 -51 -146 -84q-61 -47 -112 -118z
M422 1573q8 -29 -0.5 -60t-31.5 -65q-14 -23 -29.5 -41.5t-32.5 -35.5q-5 -6 -16 -15t-23 -17t-23 -11.5t-16 2.5q-36 29 -71 59t-77 56q-7 5 -6.5 9.5t5.5 13.5l160 244q7 10 14 9.5t15 -5.5q21 -12 42 -27t39 -32.5t31.5 -38t19.5 -45.5zM975 1949q8 -29 -0.5 -60
t-31.5 -65q-14 -23 -29.5 -41.5t-32.5 -35.5q-5 -6 -16 -15t-23 -17t-23 -11.5t-16 2.5q-36 29 -71 59t-77 56q-7 5 -6.5 9.5t5.5 13.5l160 244q7 10 14 9.5t15 -5.5q21 -12 42 -27t39 -32.5t31.5 -38t19.5 -45.5z" />
    <glyph glyph-name="He_Re" unicode="&#x6be;&#xfeae;" horiz-adv-x="1233" 
d="M1125 867q0 24 -40.5 50t-88.5 26q-23 0 -35 -20t-12 -38q0 -15 1.5 -29.5t7.5 -23.5l102 -6q27 -3 46 7.5t19 33.5zM900 891q0 27 -38.5 53t-78.5 26q-27 0 -64 -33.5t-37 -66.5q0 -32 13.5 -50t60.5 -18q70 0 107 32.5t37 56.5zM96 181q54 24 112.5 62.5t105 80.5
t90.5 134t73 131q42 62 168 126q-24 18 -24 74q0 31 24.5 97t66.5 143q20 58 29 96q21 73 36 73q37 -31 98.5 -69.5t160 -57t132 -52.5t33.5 -88q0 -81 -51 -144t-106 -63l-62 3q-73 0 -91 -16.5t-49 -50t-51 -46.5t-54 -31t-55 -27q-114 -49 -172 -108q-41 -40 -76 -109
t-73.5 -141t-56.5 -96q-34 -35 -132.5 -67t-215.5 -32q-18 -3 -34.5 0t-32.5 9q0 25 58.5 71t148.5 98z" />
    <glyph glyph-name="He_Ze" unicode="&#x6be;&#xfeb0;" horiz-adv-x="1316" 
d="M1195 867q0 24 -40.5 50t-88.5 26q-22 0 -34 -20t-12 -38q0 -15 1.5 -29.5t7.5 -23.5l102 -6q27 -3 45.5 7.5t18.5 33.5zM970 891q0 27 -38 53t-79 26q-27 0 -63.5 -33.5t-36.5 -66.5q0 -32 13.5 -50t59.5 -18q71 0 107.5 32.5t36.5 56.5zM166 181q54 24 112.5 62.5
t105 80.5t91 134t72.5 131q42 62 168 126q-24 18 -24 74q0 31 25 97t67 143q19 58 28 96q21 73 36 73q38 -31 99.5 -69.5t159.5 -57t132 -52.5t34 -88q0 -81 -51 -144t-107 -63l-61 3q-74 0 -92 -16.5t-48.5 -50t-51 -46.5t-54 -31t-54.5 -27q-114 -49 -173 -108
q-40 -40 -75.5 -109t-73.5 -141t-56 -96q-35 -35 -133 -67t-215 -32q-18 -3 -34.5 0t-33.5 9q0 25 58.5 71t148.5 98zM767 1720q8 -29 -0.5 -60t-31.5 -65q-14 -23 -29.5 -41.5t-32.5 -35.5q-5 -6 -16 -15t-23 -17t-23 -11.5t-16 2.5q-36 29 -71 59t-77 56q-7 5 -6.5 9.5
t5.5 13.5l160 244q7 10 14 9.5t15 -5.5q21 -12 42 -27t39 -32.5t31.5 -38t19.5 -45.5z" />
    <glyph glyph-name="He_Zh" unicode="&#x6be;&#xfb8b;" horiz-adv-x="1342" 
d="M1216 867q0 24 -40.5 50t-88.5 26q-22 0 -34 -20t-12 -38q0 -15 1.5 -29.5t7.5 -23.5l102 -6q27 -3 45.5 7.5t18.5 33.5zM991 891q0 27 -38 53t-79 26q-27 0 -63.5 -33.5t-36.5 -66.5q0 -32 13.5 -50t59.5 -18q71 0 107.5 32.5t36.5 56.5zM187 181q54 24 112.5 62.5
t105 80.5t91 134t72.5 131q42 62 168 126q-24 18 -24 74q0 31 25 97t67 143q19 58 28 96q21 73 36 73q38 -31 99.5 -69.5t159.5 -57t132 -52.5t34 -88q0 -81 -51 -144t-107 -63l-61 3q-74 0 -92 -16.5t-48.5 -50t-51 -46.5t-54 -31t-54.5 -27q-114 -49 -173 -108
q-40 -40 -75.5 -109t-73.5 -141t-56 -96q-35 -35 -133 -67t-215 -32q-18 -3 -34.5 0t-33.5 9q0 25 58.5 71t148.5 98zM1100 1804q8 -28 -0.5 -58t-29.5 -62q-17 -26 -34.5 -48.5t-38.5 -42.5q-13 -14 -23 -20t-17 -7.5t-12 0.5t-9 5q-35 28 -68.5 56.5t-73.5 53.5
q-5 7 -5 10.5t5 11.5l152 234q7 9 13.5 8.5t14.5 -5.5q20 -12 40.5 -25.5t37.5 -30.5t30 -36.5t18 -43.5zM962 2165q8 -28 -0.5 -58t-29.5 -62q-17 -26 -34.5 -48.5t-38.5 -42.5q-13 -14 -23 -20t-17 -7.5t-12 0.5t-9 5q-35 28 -68.5 56.5t-73.5 53.5q-5 7 -5 10.5t5 11.5
l152 234q7 9 13.5 8.5t14.5 -5.5q20 -12 40.5 -25.5t37.5 -30.5t30 -36.5t18 -43.5zM784 1812q2 -5 3.5 -9t3.5 -9l3 -9q0 -4 1 -6q0 -2 0.5 -4t0.5 -4t0.5 -3t0.5 -3q0 -19 -4 -35q0 -2 -0.5 -3t-0.5 -3l-4 -12l-3 -6q-1 -2 -1.5 -5t-2.5 -5l-6 -12l-12 -19l-17 -25
q-5 -8 -11 -15.5t-12 -15.5l-16 -18t-17 -17l-10 -10l-5 -4q-12 -10 -20.5 -13t-14.5 -1q-4 1 -6.5 2.5t-4.5 3.5l-24 19l-10 9l-59 48l-7 5q-21 16 -41 29q-6 5 -6 9.5t5 12.5l153 233q7 11 16 9l2 -1q1 0 5 -2q2 -2 4 -2q13 -8 26 -16.5t26 -17.5l11 -9q11 -9 20 -18
t17 -20l6 -8l9 -16z" />
    <glyph glyph-name="Be_Re" unicode="&#xfe91;&#xfeae;" horiz-adv-x="958" 
d="M845 819q-16 -59 -40 -104t-50 -73q-26 -26 -58 -48t-68 -36q-37 -15 -63 -33.5t-43 -39.5q-26 -28 -45 -77.5t-39.5 -104.5t-45 -107.5t-61.5 -86.5q-51 -54 -151 -73l-183 -31q-8 -1 -19.5 -1.5t-16.5 0.5q-23 7 -14 30.5t47 47.5q77 51 123 82.5t75 51.5t46.5 33
t37.5 29q81 61 112 128q18 35 33 68t31.5 65t35.5 63.5t44 63.5q26 32 70 62.5t106 60.5q72 37 93 96q12 28 28.5 53t34.5 27q20 -3 10 -43q-5 -20 -12.5 -45.5t-17.5 -57.5zM749 -483q8 -29 -0.5 -60t-31.5 -65q-14 -23 -29.5 -41.5t-32.5 -35.5q-5 -6 -16 -15t-23 -17
t-23 -11.5t-16 2.5q-36 29 -71 59t-77 56q-7 5 -6.5 9.5t5.5 13.5l160 244q7 10 14 9.5t15 -5.5q21 -12 42 -27t39 -32.5t31.5 -38t19.5 -45.5z" />
    <glyph glyph-name="Be_Ze" unicode="&#xfe91;&#xfeb0;" horiz-adv-x="924" 
d="M845 819q-16 -59 -40 -104t-50 -73q-26 -26 -58 -48t-68 -36q-37 -15 -63 -33.5t-43 -39.5q-26 -28 -45 -77.5t-39.5 -104.5t-45 -107.5t-61.5 -86.5q-51 -54 -151 -73l-183 -31q-8 -1 -19.5 -1.5t-16.5 0.5q-23 7 -14 30.5t47 47.5q77 51 123 82.5t75 51.5t46.5 33
t37.5 29q81 61 112 128q18 35 33 68t31.5 65t35.5 63.5t44 63.5q26 32 70 62.5t106 60.5q72 37 93 96q12 28 28.5 53t34.5 27q20 -3 10 -43q-5 -20 -12.5 -45.5t-17.5 -57.5zM600 1346q8 -29 -0.5 -60t-31.5 -65q-14 -23 -29.5 -41.5t-32.5 -35.5q-5 -6 -16 -15t-23 -17
t-23 -11.5t-16 2.5q-36 29 -71 59t-77 56q-7 5 -6.5 9.5t5.5 13.5l160 244q7 10 14 9.5t15 -5.5q21 -12 42 -27t39 -32.5t31.5 -38t19.5 -45.5zM751 -484q8 -29 -0.5 -60t-31.5 -65q-14 -23 -29.5 -41.5t-32.5 -35.5q-5 -6 -16 -15t-23 -17t-23 -11.5t-16 2.5q-36 29 -71 59
t-77 56q-7 5 -6.5 9.5t5.5 13.5l160 244q7 10 14 9.5t15 -5.5q21 -12 42 -27t39 -32.5t31.5 -38t19.5 -45.5z" />
    <glyph glyph-name="Be_Zh" unicode="&#xfe91;&#xfb8b;" horiz-adv-x="1038" 
d="M845 819q-16 -59 -40 -104t-50 -73q-26 -26 -58 -48t-68 -36q-37 -15 -63 -33.5t-43 -39.5q-26 -28 -45 -77.5t-39.5 -104.5t-45 -107.5t-61.5 -86.5q-51 -54 -151 -73l-183 -31q-8 -1 -19.5 -1.5t-16.5 0.5q-23 7 -14 30.5t47 47.5q77 51 123 82.5t75 51.5t46.5 33
t37.5 29q81 61 112 128q18 35 33 68t31.5 65t35.5 63.5t44 63.5q26 32 70 62.5t106 60.5q72 37 93 96q12 28 28.5 53t34.5 27q20 -3 10 -43q-5 -20 -12.5 -45.5t-17.5 -57.5zM826 1383q8 -28 -0.5 -58t-29.5 -62q-17 -26 -34.5 -48.5t-38.5 -42.5q-13 -14 -23 -20t-17 -7.5
t-12 0.5t-9 5q-35 28 -68.5 56.5t-73.5 53.5q-5 7 -5 10.5t5 11.5l152 234q7 9 13.5 8.5t14.5 -5.5q20 -12 40.5 -25.5t37.5 -30.5t30 -36.5t18 -43.5zM688 1744q8 -28 -0.5 -58t-29.5 -62q-17 -26 -34.5 -48.5t-38.5 -42.5q-13 -14 -23 -20t-17 -7.5t-12 0.5t-9 5
q-35 28 -68.5 56.5t-73.5 53.5q-5 7 -5 10.5t5 11.5l152 234q7 9 13.5 8.5t14.5 -5.5q20 -12 40.5 -25.5t37.5 -30.5t30 -36.5t18 -43.5zM510 1391q2 -5 3.5 -9t3.5 -9l3 -9q0 -4 1 -6q0 -2 0.5 -4t0.5 -4t0.5 -3t0.5 -3q0 -19 -4 -35q0 -2 -0.5 -3t-0.5 -3l-4 -12l-3 -6
q-1 -2 -1.5 -5t-2.5 -5l-6 -12l-12 -19l-17 -25q-5 -8 -11 -15.5t-12 -15.5l-16 -18t-17 -17l-10 -10l-5 -4q-12 -10 -20.5 -13t-14.5 -1q-4 1 -6.5 2.5t-4.5 3.5l-24 19l-10 9l-59 48l-7 5q-21 16 -41 29q-6 5 -6 9.5t5 12.5l153 233q7 11 16 9l2 -1q1 0 5 -2q2 -2 4 -2
q13 -8 26 -16.5t26 -17.5l11 -9q11 -9 20 -18t17 -20l6 -8l9 -16zM823 -475q8 -29 -0.5 -60t-31.5 -65q-14 -23 -29.5 -41.5t-32.5 -35.5q-5 -6 -16 -15t-23 -17t-23 -11.5t-16 2.5q-36 29 -71 59t-77 56q-7 5 -6.5 9.5t5.5 13.5l160 244q7 10 14 9.5t15 -5.5q21 -12 42 -27
t39 -32.5t31.5 -38t19.5 -45.5z" />
    <glyph glyph-name="Te_Re" unicode="&#xfe97;&#xfeae;" horiz-adv-x="1000" 
d="M845 819q-16 -59 -40 -104t-50 -73q-26 -26 -58 -48t-68 -36q-37 -15 -63 -33.5t-43 -39.5q-26 -28 -45 -77.5t-39.5 -104.5t-45 -107.5t-61.5 -86.5q-51 -54 -151 -73l-183 -31q-8 -1 -19.5 -1.5t-16.5 0.5q-23 7 -14 30.5t47 47.5q77 51 123 82.5t75 51.5t46.5 33
t37.5 29q81 61 112 128q18 35 33 68t31.5 65t35.5 63.5t44 63.5q26 32 70 62.5t106 60.5q72 37 93 96q12 28 28.5 53t34.5 27q20 -3 10 -43q-5 -20 -12.5 -45.5t-17.5 -57.5zM1186 1627q8 -28 -0.5 -58t-29.5 -62q-17 -26 -34.5 -48.5t-38.5 -42.5q-13 -14 -23 -20t-17 -7.5
t-12 0.5t-9 5q-35 28 -68.5 56.5t-73.5 53.5q-5 7 -5 10.5t5 11.5l152 234q7 9 13.5 8.5t14.5 -5.5q20 -12 40.5 -25.5t37.5 -30.5t30 -36.5t18 -43.5zM880 1608q0 -4 1 -6q0 -3 1 -5q0 -2 0.5 -4.5t0.5 -4.5v-14q0 -2 -0.5 -4.5t-0.5 -4.5l-3 -12q0 -2 -0.5 -3t-0.5 -3
l-4 -12q-2 -4 -3.5 -8t-3.5 -8q0 -1 -0.5 -1.5t-0.5 -1.5l-5 -9q-2 -5 -5 -8.5t-5 -7.5q-2 -2 -2 -3l-12 -18l-5 -7q-2 -2 -3.5 -5t-3.5 -5q-4 -6 -7 -9l-16 -20q-2 -2 -2 -3q-2 -2 -4.5 -5t-5.5 -5l-6 -6q-3 -5 -8 -8l-10 -10l-5 -4q-11 -9 -19 -12l-6 -2h-7q-8 0 -14 6
q-22 17 -42.5 35t-43.5 35q-7 6 -14 11q-21 16 -41 29q-1 0 -1 1q-5 5 -5 9t5 12l153 233q0 1 1 2q7 9 15 7l2 -1q1 0 2 -1l7 -3q2 -2 4 -2.5t4 -2.5l4 -2t4 -3q4 -2 8 -5q6 -4 12 -7.5t12 -8.5l4 -3q16 -12 33 -29l12 -14l9 -12q7 -10 11 -20q2 -3 4 -9l3 -9q1 -1 1 -2
t1 -3q0 -3 1 -4z" />
    <glyph glyph-name="Te_Ze" unicode="&#xfe97;&#xfeb0;" horiz-adv-x="1057" 
d="M845 819q-16 -59 -40 -104t-50 -73q-26 -26 -58 -48t-68 -36q-37 -15 -63 -33.5t-43 -39.5q-26 -28 -45 -77.5t-39.5 -104.5t-45 -107.5t-61.5 -86.5q-51 -54 -151 -73l-183 -31q-8 -1 -19.5 -1.5t-16.5 0.5q-23 7 -14 30.5t47 47.5q77 51 123 82.5t75 51.5t46.5 33
t37.5 29q81 61 112 128q18 35 33 68t31.5 65t35.5 63.5t44 63.5q26 32 70 62.5t106 60.5q72 37 93 96q12 28 28.5 53t34.5 27q20 -3 10 -43q-5 -20 -12.5 -45.5t-17.5 -57.5zM660 1466q8 -29 -0.5 -60t-31.5 -65q-14 -23 -29.5 -41.5t-32.5 -35.5q-5 -6 -16 -15t-23 -17
t-23 -11.5t-16 2.5q-36 29 -71 59t-77 56q-7 5 -6.5 9.5t5.5 13.5l160 244q7 10 14 9.5t15 -5.5q21 -12 42 -27t39 -32.5t31.5 -38t19.5 -45.5zM1282 1924q8 -28 -0.5 -58t-29.5 -62q-17 -26 -34.5 -48.5t-38.5 -42.5q-13 -14 -23 -20t-17 -7.5t-12 0.5t-9 5
q-35 28 -68.5 56.5t-73.5 53.5q-5 7 -5 10.5t5 11.5l152 234q7 9 13.5 8.5t14.5 -5.5q20 -12 40.5 -25.5t37.5 -30.5t30 -36.5t18 -43.5zM976 1905q0 -4 1 -6q0 -3 1 -5q0 -2 0.5 -4.5t0.5 -4.5v-14q0 -2 -0.5 -4.5t-0.5 -4.5l-3 -12q0 -2 -0.5 -3t-0.5 -3l-4 -12
q-2 -4 -3.5 -8t-3.5 -8q0 -1 -0.5 -1.5t-0.5 -1.5l-5 -9q-2 -5 -5 -8.5t-5 -7.5q-2 -2 -2 -3l-12 -18l-5 -7q-2 -2 -3.5 -5t-3.5 -5q-4 -6 -7 -9l-16 -20q-2 -2 -2 -3q-2 -2 -4.5 -5t-5.5 -5l-6 -6q-3 -5 -8 -8l-10 -10l-5 -4q-11 -9 -19 -12l-6 -2h-7q-8 0 -14 6
q-22 17 -42.5 35t-43.5 35q-7 6 -14 11q-21 16 -41 29q-1 0 -1 1q-5 5 -5 9t5 12l153 233q0 1 1 2q7 9 15 7l2 -1q1 0 2 -1l7 -3q2 -2 4 -2.5t4 -2.5l4 -2t4 -3q4 -2 8 -5q6 -4 12 -7.5t12 -8.5l4 -3q16 -12 33 -29l12 -14l9 -12q7 -10 11 -20q2 -3 4 -9l3 -9q1 -1 1 -2
t1 -3q0 -3 1 -4z" />
    <glyph glyph-name="Ne_Re" unicode="&#xfee7;&#xfeae;" horiz-adv-x="967" 
d="M845 819q-16 -59 -40 -104t-50 -73q-26 -26 -58 -48t-68 -36q-37 -15 -63 -33.5t-43 -39.5q-26 -28 -45 -77.5t-39.5 -104.5t-45 -107.5t-61.5 -86.5q-51 -54 -151 -73l-183 -31q-8 -1 -19.5 -1.5t-16.5 0.5q-23 7 -14 30.5t47 47.5q77 51 123 82.5t75 51.5t46.5 33
t37.5 29q81 61 112 128q18 35 33 68t31.5 65t35.5 63.5t44 63.5q26 32 70 62.5t106 60.5q72 37 93 96q12 28 28.5 53t34.5 27q20 -3 10 -43q-5 -20 -12.5 -45.5t-17.5 -57.5zM945 1596q8 -29 -0.5 -60t-31.5 -65q-14 -23 -29.5 -41.5t-32.5 -35.5q-5 -6 -16 -15t-23 -17
t-23 -11.5t-16 2.5q-36 29 -71 59t-77 56q-7 5 -6.5 9.5t5.5 13.5l160 244q7 10 14 9.5t15 -5.5q21 -12 42 -27t39 -32.5t31.5 -38t19.5 -45.5z" />
    <glyph glyph-name="Ne_Ze" unicode="&#xfee7;&#xfeb0;" horiz-adv-x="1008" 
d="M845 819q-16 -59 -40 -104t-50 -73q-26 -26 -58 -48t-68 -36q-37 -15 -63 -33.5t-43 -39.5q-26 -28 -45 -77.5t-39.5 -104.5t-45 -107.5t-61.5 -86.5q-51 -54 -151 -73l-183 -31q-8 -1 -19.5 -1.5t-16.5 0.5q-23 7 -14 30.5t47 47.5q77 51 123 82.5t75 51.5t46.5 33
t37.5 29q81 61 112 128q18 35 33 68t31.5 65t35.5 63.5t44 63.5q26 32 70 62.5t106 60.5q72 37 93 96q12 28 28.5 53t34.5 27q20 -3 10 -43q-5 -20 -12.5 -45.5t-17.5 -57.5zM518 1369q8 -29 -0.5 -60t-31.5 -65q-14 -23 -29.5 -41.5t-32.5 -35.5q-5 -6 -16 -15t-23 -17
t-23 -11.5t-16 2.5q-36 29 -71 59t-77 56q-7 5 -6.5 9.5t5.5 13.5l160 244q7 10 14 9.5t15 -5.5q21 -12 42 -27t39 -32.5t31.5 -38t19.5 -45.5zM993 1744q8 -29 -0.5 -60t-31.5 -65q-14 -23 -29.5 -41.5t-32.5 -35.5q-5 -6 -16 -15t-23 -17t-23 -11.5t-16 2.5q-36 29 -71 59
t-77 56q-7 5 -6.5 9.5t5.5 13.5l160 244q7 10 14 9.5t15 -5.5q21 -12 42 -27t39 -32.5t31.5 -38t19.5 -45.5z" />
    <glyph glyph-name="Ne_Zh" unicode="&#xfee7;&#xfb8b;" horiz-adv-x="982" 
d="M845 819q-16 -59 -40 -104t-50 -73q-26 -26 -58 -48t-68 -36q-37 -15 -63 -33.5t-43 -39.5q-26 -28 -45 -77.5t-39.5 -104.5t-45 -107.5t-61.5 -86.5q-51 -54 -151 -73l-183 -31q-8 -1 -19.5 -1.5t-16.5 0.5q-23 7 -14 30.5t47 47.5q77 51 123 82.5t75 51.5t46.5 33
t37.5 29q81 61 112 128q18 35 33 68t31.5 65t35.5 63.5t44 63.5q26 32 70 62.5t106 60.5q72 37 93 96q12 28 28.5 53t34.5 27q20 -3 10 -43q-5 -20 -12.5 -45.5t-17.5 -57.5zM641 1321q8 -28 -0.5 -58t-29.5 -62q-17 -26 -34.5 -48.5t-38.5 -42.5q-13 -14 -23 -20t-17 -7.5
t-12 0.5t-9 5q-35 28 -68.5 56.5t-73.5 53.5q-5 7 -5 10.5t5 11.5l152 234q7 9 13.5 8.5t14.5 -5.5q20 -12 40.5 -25.5t37.5 -30.5t30 -36.5t18 -43.5zM503 1682q8 -28 -0.5 -58t-29.5 -62q-17 -26 -34.5 -48.5t-38.5 -42.5q-13 -14 -23 -20t-17 -7.5t-12 0.5t-9 5
q-35 28 -68.5 56.5t-73.5 53.5q-5 7 -5 10.5t5 11.5l152 234q7 9 13.5 8.5t14.5 -5.5q20 -12 40.5 -25.5t37.5 -30.5t30 -36.5t18 -43.5zM325 1329q2 -5 3.5 -9t3.5 -9l3 -9q0 -4 1 -6q0 -2 0.5 -4t0.5 -4t0.5 -3t0.5 -3q0 -19 -4 -35q0 -2 -0.5 -3t-0.5 -3l-4 -12l-3 -6
q-1 -2 -1.5 -5t-2.5 -5l-6 -12l-12 -19l-17 -25q-5 -8 -11 -15.5t-12 -15.5l-16 -18t-17 -17l-10 -10l-5 -4q-12 -10 -20.5 -13t-14.5 -1q-4 1 -6.5 2.5t-4.5 3.5l-24 19l-10 9l-59 48l-7 5q-21 16 -41 29q-6 5 -6 9.5t5 12.5l153 233q7 11 16 9l2 -1q1 0 5 -2q2 -2 4 -2
q13 -8 26 -16.5t26 -17.5l11 -9q11 -9 20 -18t17 -20l6 -8l9 -16zM985 1970q8 -29 -0.5 -60t-31.5 -65q-14 -23 -29.5 -41.5t-32.5 -35.5q-5 -6 -16 -15t-23 -17t-23 -11.5t-16 2.5q-36 29 -71 59t-77 56q-7 5 -6.5 9.5t5.5 13.5l160 244q7 10 14 9.5t15 -5.5q21 -12 42 -27
t39 -32.5t31.5 -38t19.5 -45.5z" />
    <glyph glyph-name="Se_Re" unicode="&#xfe9b;&#xfeae;" horiz-adv-x="939" 
d="M845 819q-16 -59 -40 -104t-50 -73q-26 -26 -58 -48t-68 -36q-37 -15 -63 -33.5t-43 -39.5q-26 -28 -45 -77.5t-39.5 -104.5t-45 -107.5t-61.5 -86.5q-51 -54 -151 -73l-183 -31q-8 -1 -19.5 -1.5t-16.5 0.5q-23 7 -14 30.5t47 47.5q77 51 123 82.5t75 51.5t46.5 33
t37.5 29q81 61 112 128q18 35 33 68t31.5 65t35.5 63.5t44 63.5q26 32 70 62.5t106 60.5q72 37 93 96q12 28 28.5 53t34.5 27q20 -3 10 -43q-5 -20 -12.5 -45.5t-17.5 -57.5zM1075 1625q8 -28 -0.5 -58t-29.5 -62q-17 -26 -34.5 -48.5t-38.5 -42.5q-13 -14 -23 -20t-17 -7.5
t-12 0.5t-9 5q-35 28 -68.5 56.5t-73.5 53.5q-5 7 -5 10.5t5 11.5l152 234q7 9 13.5 8.5t14.5 -5.5q20 -12 40.5 -25.5t37.5 -30.5t30 -36.5t18 -43.5zM937 1986q8 -28 -0.5 -58t-29.5 -62q-17 -26 -34.5 -48.5t-38.5 -42.5q-13 -14 -23 -20t-17 -7.5t-12 0.5t-9 5
q-35 28 -68.5 56.5t-73.5 53.5q-5 7 -5 10.5t5 11.5l152 234q7 9 13.5 8.5t14.5 -5.5q20 -12 40.5 -25.5t37.5 -30.5t30 -36.5t18 -43.5zM759 1633q2 -5 3.5 -9t3.5 -9l3 -9q0 -4 1 -6q0 -2 0.5 -4t0.5 -4t0.5 -3t0.5 -3q0 -19 -4 -35q0 -2 -0.5 -3t-0.5 -3l-4 -12l-3 -6
q-1 -2 -1.5 -5t-2.5 -5l-6 -12l-12 -19l-17 -25q-5 -8 -11 -15.5t-12 -15.5l-16 -18t-17 -17l-10 -10l-5 -4q-12 -10 -20.5 -13t-14.5 -1q-4 1 -6.5 2.5t-4.5 3.5l-24 19l-10 9l-59 48l-7 5q-21 16 -41 29q-6 5 -6 9.5t5 12.5l153 233q7 11 16 9l2 -1q1 0 5 -2q2 -2 4 -2
q13 -8 26 -16.5t26 -17.5l11 -9q11 -9 20 -18t17 -20l6 -8l9 -16z" />
    <glyph glyph-name="Ye_Re" unicode="&#xfbfe;&#xfeae;" horiz-adv-x="851" 
d="M845 819q-16 -59 -40 -104t-50 -73q-26 -26 -58 -48t-68 -36q-37 -15 -63 -33.5t-43 -39.5q-26 -28 -45 -77.5t-39.5 -104.5t-45 -107.5t-61.5 -86.5q-51 -54 -151 -73l-183 -31q-8 -1 -19.5 -1.5t-16.5 0.5q-23 7 -14 30.5t47 47.5q77 51 123 82.5t75 51.5t46.5 33
t37.5 29q81 61 112 128q18 35 33 68t31.5 65t35.5 63.5t44 63.5q26 32 70 62.5t106 60.5q72 37 93 96q12 28 28.5 53t34.5 27q20 -3 10 -43q-5 -20 -12.5 -45.5t-17.5 -57.5zM826 -525q8 -28 -0.5 -58t-29.5 -62q-17 -26 -34.5 -48.5t-38.5 -42.5q-13 -14 -23 -20t-17 -7.5
t-12 0.5t-9 5q-35 28 -68.5 56.5t-73.5 53.5q-5 7 -5 10.5t5 11.5l152 234q7 9 13.5 8.5t14.5 -5.5q20 -12 40.5 -25.5t37.5 -30.5t30 -36.5t18 -43.5zM520 -544q0 -4 1 -6q0 -3 1 -5q0 -2 0.5 -4.5t0.5 -4.5v-14q0 -2 -0.5 -4.5t-0.5 -4.5l-3 -12q0 -2 -0.5 -3t-0.5 -3
l-4 -12q-2 -4 -3.5 -8t-3.5 -8q0 -1 -0.5 -1.5t-0.5 -1.5l-5 -9q-2 -5 -5 -8.5t-5 -7.5q-2 -2 -2 -3l-12 -18l-5 -7q-2 -2 -3.5 -5t-3.5 -5q-4 -6 -7 -9l-16 -20q-2 -2 -2 -3q-2 -2 -4.5 -5t-5.5 -5l-6 -6q-3 -5 -8 -8l-10 -10l-5 -4q-11 -9 -19 -12l-6 -2h-7q-8 0 -14 6
q-22 17 -42.5 35t-43.5 35q-7 6 -14 11q-21 16 -41 29q-1 0 -1 1q-5 5 -5 9t5 12l153 233q0 1 1 2q7 9 15 7l2 -1q1 0 2 -1l7 -3q2 -2 4 -2.5t4 -2.5l4 -2t4 -3q4 -2 8 -5q6 -4 12 -7.5t12 -8.5l4 -3q9 -7 17 -14t16 -15l12 -14l9 -12q7 -10 11 -20q2 -3 4 -9l3 -9
q1 -1 1 -2t1 -3q0 -3 1 -4z" />
    <glyph glyph-name="Ye_Ze" unicode="&#xfbfe;&#xfeb0;" horiz-adv-x="873" 
d="M845 819q-16 -59 -40 -104t-50 -73q-26 -26 -58 -48t-68 -36q-37 -15 -63 -33.5t-43 -39.5q-26 -28 -45 -77.5t-39.5 -104.5t-45 -107.5t-61.5 -86.5q-51 -54 -151 -73l-183 -31q-8 -1 -19.5 -1.5t-16.5 0.5q-23 7 -14 30.5t47 47.5q77 51 123 82.5t75 51.5t46.5 33
t37.5 29q81 61 112 128q18 35 33 68t31.5 65t35.5 63.5t44 63.5q26 32 70 62.5t106 60.5q72 37 93 96q12 28 28.5 53t34.5 27q20 -3 10 -43q-5 -20 -12.5 -45.5t-17.5 -57.5zM589 1449q8 -29 -0.5 -60t-31.5 -65q-14 -23 -29.5 -41.5t-32.5 -35.5q-5 -6 -16 -15t-23 -17
t-23 -11.5t-16 2.5q-36 29 -71 59t-77 56q-7 5 -6.5 9.5t5.5 13.5l160 244q7 10 14 9.5t15 -5.5q21 -12 42 -27t39 -32.5t31.5 -38t19.5 -45.5zM866 -498q8 -28 -0.5 -58t-29.5 -62q-17 -26 -34.5 -48.5t-38.5 -42.5q-13 -14 -23 -20t-17 -7.5t-12 0.5t-9 5
q-35 28 -68.5 56.5t-73.5 53.5q-5 7 -5 10.5t5 11.5l152 234q7 9 13.5 8.5t14.5 -5.5q20 -12 40.5 -25.5t37.5 -30.5t30 -36.5t18 -43.5zM560 -517q0 -4 1 -6q0 -3 1 -5q0 -2 0.5 -4.5t0.5 -4.5v-14q0 -2 -0.5 -4.5t-0.5 -4.5l-3 -12q0 -2 -0.5 -3t-0.5 -3l-4 -12
q-2 -4 -3.5 -8t-3.5 -8q0 -1 -0.5 -1.5t-0.5 -1.5l-5 -9q-2 -5 -5 -8.5t-5 -7.5q-2 -2 -2 -3l-12 -18l-5 -7q-2 -2 -3.5 -5t-3.5 -5q-4 -6 -7 -9l-16 -20q-2 -2 -2 -3q-2 -2 -4.5 -5t-5.5 -5l-6 -6q-3 -5 -8 -8l-10 -10l-5 -4q-11 -9 -19 -12l-6 -2h-7q-8 0 -14 6
q-22 17 -42.5 35t-43.5 35q-7 6 -14 11q-21 16 -41 29q-1 0 -1 1q-5 5 -5 9t5 12l153 233q0 1 1 2q7 9 15 7l2 -1q1 0 2 -1l7 -3q2 -2 4 -2.5t4 -2.5l4 -2t4 -3q4 -2 8 -5q6 -4 12 -7.5t12 -8.5l4 -3q9 -7 17 -14t16 -15l12 -14l9 -12q7 -10 11 -20q2 -3 4 -9l3 -9
q1 -1 1 -2t1 -3q0 -3 1 -4z" />
    <glyph glyph-name="Ye_Zh" unicode="&#xfbfe;&#xfb8b;" horiz-adv-x="994" 
d="M845 819q-16 -59 -40 -104t-50 -73q-26 -26 -58 -48t-68 -36q-37 -15 -63 -33.5t-43 -39.5q-26 -28 -45 -77.5t-39.5 -104.5t-45 -107.5t-61.5 -86.5q-51 -54 -151 -73l-183 -31q-8 -1 -19.5 -1.5t-16.5 0.5q-23 7 -14 30.5t47 47.5q77 51 123 82.5t75 51.5t46.5 33
t37.5 29q81 61 112 128q18 35 33 68t31.5 65t35.5 63.5t44 63.5q26 32 70 62.5t106 60.5q72 37 93 96q12 28 28.5 53t34.5 27q20 -3 10 -43q-5 -20 -12.5 -45.5t-17.5 -57.5zM831 1407q8 -28 -0.5 -58t-29.5 -62q-17 -26 -34.5 -48.5t-38.5 -42.5q-13 -14 -23 -20t-17 -7.5
t-12 0.5t-9 5q-35 28 -68.5 56.5t-73.5 53.5q-5 7 -5 10.5t5 11.5l152 234q7 9 13.5 8.5t14.5 -5.5q20 -12 40.5 -25.5t37.5 -30.5t30 -36.5t18 -43.5zM693 1768q8 -28 -0.5 -58t-29.5 -62q-17 -26 -34.5 -48.5t-38.5 -42.5q-13 -14 -23 -20t-17 -7.5t-12 0.5t-9 5
q-35 28 -68.5 56.5t-73.5 53.5q-5 7 -5 10.5t5 11.5l152 234q7 9 13.5 8.5t14.5 -5.5q20 -12 40.5 -25.5t37.5 -30.5t30 -36.5t18 -43.5zM515 1415q2 -5 3.5 -9t3.5 -9l3 -9q0 -4 1 -6q0 -2 0.5 -4t0.5 -4t0.5 -3t0.5 -3q0 -19 -4 -35q0 -2 -0.5 -3t-0.5 -3l-4 -12l-3 -6
q-1 -2 -1.5 -5t-2.5 -5l-6 -12l-12 -19l-17 -25q-5 -8 -11 -15.5t-12 -15.5l-16 -18t-17 -17l-10 -10l-5 -4q-12 -10 -20.5 -13t-14.5 -1q-4 1 -6.5 2.5t-4.5 3.5l-24 19l-10 9l-59 48l-7 5q-21 16 -41 29q-6 5 -6 9.5t5 12.5l153 233q7 11 16 9l2 -1q1 0 5 -2q2 -2 4 -2
q13 -8 26 -16.5t26 -17.5l11 -9q11 -9 20 -18t17 -20l6 -8l9 -16zM826 -525q8 -28 -0.5 -58t-29.5 -62q-17 -26 -34.5 -48.5t-38.5 -42.5q-13 -14 -23 -20t-17 -7.5t-12 0.5t-9 5q-35 28 -68.5 56.5t-73.5 53.5q-5 7 -5 10.5t5 11.5l152 234q7 9 13.5 8.5t14.5 -5.5
q20 -12 40.5 -25.5t37.5 -30.5t30 -36.5t18 -43.5zM520 -544q0 -4 1 -6q0 -3 1 -5q0 -2 0.5 -4.5t0.5 -4.5v-14q0 -2 -0.5 -4.5t-0.5 -4.5l-3 -12q0 -2 -0.5 -3t-0.5 -3l-4 -12q-2 -4 -3.5 -8t-3.5 -8q0 -1 -0.5 -1.5t-0.5 -1.5l-5 -9q-2 -5 -5 -8.5t-5 -7.5q-2 -2 -2 -3
l-12 -18l-5 -7q-2 -2 -3.5 -5t-3.5 -5q-4 -6 -7 -9l-16 -20q-2 -2 -2 -3q-2 -2 -4.5 -5t-5.5 -5l-6 -6q-3 -5 -8 -8l-10 -10l-5 -4q-11 -9 -19 -12l-6 -2h-7q-8 0 -14 6q-22 17 -42.5 35t-43.5 35q-7 6 -14 11q-21 16 -41 29q-1 0 -1 1q-5 5 -5 9t5 12l153 233q0 1 1 2
q7 9 15 7l2 -1q1 0 2 -1l7 -3q2 -2 4 -2.5t4 -2.5l4 -2t4 -3q4 -2 8 -5q6 -4 12 -7.5t12 -8.5l4 -3q9 -7 17 -14t16 -15l12 -14l9 -12q7 -10 11 -20q2 -3 4 -9l3 -9q1 -1 1 -2t1 -3q0 -3 1 -4z" />
    <glyph glyph-name="Pe_Re" unicode="&#xfb58;&#xfeae;" horiz-adv-x="895" 
d="M845 819q-16 -59 -40 -104t-50 -73q-26 -26 -58 -48t-68 -36q-37 -15 -63 -33.5t-43 -39.5q-26 -28 -45 -77.5t-39.5 -104.5t-45 -107.5t-61.5 -86.5q-51 -54 -151 -73l-183 -31q-8 -1 -19.5 -1.5t-16.5 0.5q-23 7 -14 30.5t47 47.5q77 51 123 82.5t75 51.5t46.5 33
t37.5 29q81 61 112 128q18 35 33 68t31.5 65t35.5 63.5t44 63.5q26 32 70 62.5t106 60.5q72 37 93 96q12 28 28.5 53t34.5 27q20 -3 10 -43q-5 -20 -12.5 -45.5t-17.5 -57.5zM911 -416q8 -28 -0.5 -58t-29.5 -62q-17 -26 -34.5 -48.5t-38.5 -42.5q-13 -14 -23 -20t-17 -7.5
t-12 0.5t-9 5q-35 28 -68.5 56.5t-73.5 53.5q-5 7 -5 10.5t5 11.5l152 234q7 9 13.5 8.5t14.5 -5.5q20 -12 40.5 -25.5t37.5 -30.5t30 -36.5t18 -43.5zM738 -804q8 -28 -0.5 -58t-29.5 -62q-17 -26 -34.5 -48.5t-38.5 -42.5q-13 -14 -23 -20t-17 -7.5t-12 0.5t-9 5
q-35 28 -68.5 56.5t-73.5 53.5q-5 7 -5 10.5t5 11.5l152 234q7 9 13.5 8.5t14.5 -5.5q20 -12 40.5 -25.5t37.5 -30.5t30 -36.5t18 -43.5zM607 -449q0 -2 0.5 -2.5t0.5 -2.5v-15l-2 -15l-2 -6q-2 -6 -3.5 -12t-4.5 -12l-2 -6l-3 -6l-5 -10l-12 -19q-2 -2 -3.5 -4.5t-3.5 -5.5
q-2 -4 -4.5 -7.5t-5.5 -7.5q-4 -6 -7 -9q-2 -2 -3.5 -5t-3.5 -5l-9 -11l-7 -9l-12 -13q-3 -4 -6.5 -7t-7.5 -7q-17 -17 -27 -22q-2 -2 -3.5 -2.5t-3.5 -1.5q-8 -3 -13 -2q-8 0 -14 6l-7 6q-9 6 -17 14l-10 8q-14 12 -29 24.5t-30 23.5l-7 6q-10 8 -20 14.5t-21 13.5
q-6 5 -6 9.5t5 12.5l153 233l3 4l3 3q4 4 12 2q1 -1 2 -1l3 -2l4 -2l16 -9l8 -5l12 -8t12 -9l4 -3l22 -18l17 -18l6 -7q9 -11 18 -28q2 -3 3.5 -6t2.5 -6l3 -9l3 -10z" />
    <glyph glyph-name="Pe_Ze" unicode="&#xfb58;&#xfeb0;" horiz-adv-x="907" 
d="M845 819q-16 -59 -40 -104t-50 -73q-26 -26 -58 -48t-68 -36q-37 -15 -63 -33.5t-43 -39.5q-26 -28 -45 -77.5t-39.5 -104.5t-45 -107.5t-61.5 -86.5q-51 -54 -151 -73l-183 -31q-8 -1 -19.5 -1.5t-16.5 0.5q-23 7 -14 30.5t47 47.5q77 51 123 82.5t75 51.5t46.5 33
t37.5 29q81 61 112 128q18 35 33 68t31.5 65t35.5 63.5t44 63.5q26 32 70 62.5t106 60.5q72 37 93 96q12 28 28.5 53t34.5 27q20 -3 10 -43q-5 -20 -12.5 -45.5t-17.5 -57.5zM653 1369q8 -29 -0.5 -60t-31.5 -65q-14 -23 -29.5 -41.5t-32.5 -35.5q-5 -6 -16 -15t-23 -17
t-23 -11.5t-16 2.5q-36 29 -71 59t-77 56q-7 5 -6.5 9.5t5.5 13.5l160 244q7 10 14 9.5t15 -5.5q21 -12 42 -27t39 -32.5t31.5 -38t19.5 -45.5zM911 -416q8 -28 -0.5 -58t-29.5 -62q-17 -26 -34.5 -48.5t-38.5 -42.5q-13 -14 -23 -20t-17 -7.5t-12 0.5t-9 5
q-35 28 -68.5 56.5t-73.5 53.5q-5 7 -5 10.5t5 11.5l152 234q7 9 13.5 8.5t14.5 -5.5q20 -12 40.5 -25.5t37.5 -30.5t30 -36.5t18 -43.5zM738 -804q8 -28 -0.5 -58t-29.5 -62q-17 -26 -34.5 -48.5t-38.5 -42.5q-13 -14 -23 -20t-17 -7.5t-12 0.5t-9 5q-35 28 -68.5 56.5
t-73.5 53.5q-5 7 -5 10.5t5 11.5l152 234q7 9 13.5 8.5t14.5 -5.5q20 -12 40.5 -25.5t37.5 -30.5t30 -36.5t18 -43.5zM607 -449q0 -2 0.5 -2.5t0.5 -2.5v-15l-2 -15l-2 -6q-2 -6 -3.5 -12t-4.5 -12l-2 -6l-3 -6l-5 -10l-12 -19q-2 -2 -3.5 -4.5t-3.5 -5.5q-2 -4 -4.5 -7.5
t-5.5 -7.5q-4 -6 -7 -9q-2 -2 -3.5 -5t-3.5 -5l-9 -11l-7 -9l-12 -13q-3 -4 -6.5 -7t-7.5 -7q-17 -17 -27 -22q-2 -2 -3.5 -2.5t-3.5 -1.5q-8 -3 -13 -2q-8 0 -14 6l-7 6q-9 6 -17 14l-10 8q-14 12 -29 24.5t-30 23.5l-7 6q-10 8 -20 14.5t-21 13.5q-6 5 -6 9.5t5 12.5
l153 233l3 4l3 3q4 4 12 2q1 -1 2 -1l3 -2l4 -2l16 -9l8 -5l12 -8t12 -9l4 -3l22 -18l17 -18l6 -7q9 -11 18 -28q2 -3 3.5 -6t2.5 -6l3 -9l3 -10z" />
    <glyph glyph-name="Pe_Zh" unicode="&#xfb58;&#xfb8b;" horiz-adv-x="977" 
d="M845 819q-16 -59 -40 -104t-50 -73q-26 -26 -58 -48t-68 -36q-37 -15 -63 -33.5t-43 -39.5q-26 -28 -45 -77.5t-39.5 -104.5t-45 -107.5t-61.5 -86.5q-51 -54 -151 -73l-183 -31q-8 -1 -19.5 -1.5t-16.5 0.5q-23 7 -14 30.5t47 47.5q77 51 123 82.5t75 51.5t46.5 33
t37.5 29q81 61 112 128q18 35 33 68t31.5 65t35.5 63.5t44 63.5q26 32 70 62.5t106 60.5q72 37 93 96q12 28 28.5 53t34.5 27q20 -3 10 -43q-5 -20 -12.5 -45.5t-17.5 -57.5zM643 1431q8 -28 -0.5 -58t-29.5 -62q-17 -26 -34.5 -48.5t-38.5 -42.5q-13 -14 -23 -20t-17 -7.5
t-12 0.5t-9 5q-35 28 -68.5 56.5t-73.5 53.5q-5 7 -5 10.5t5 11.5l152 234q7 9 13.5 8.5t14.5 -5.5q20 -12 40.5 -25.5t37.5 -30.5t30 -36.5t18 -43.5zM505 1792q8 -28 -0.5 -58t-29.5 -62q-17 -26 -34.5 -48.5t-38.5 -42.5q-13 -14 -23 -20t-17 -7.5t-12 0.5t-9 5
q-35 28 -68.5 56.5t-73.5 53.5q-5 7 -5 10.5t5 11.5l152 234q7 9 13.5 8.5t14.5 -5.5q20 -12 40.5 -25.5t37.5 -30.5t30 -36.5t18 -43.5zM327 1439q2 -5 3.5 -9t3.5 -9l3 -9q0 -4 1 -6q0 -2 0.5 -4t0.5 -4t0.5 -3t0.5 -3q0 -19 -4 -35q0 -2 -0.5 -3t-0.5 -3l-4 -12l-3 -6
q-1 -2 -1.5 -5t-2.5 -5l-6 -12l-12 -19l-17 -25q-5 -8 -11 -15.5t-12 -15.5l-16 -18t-17 -17l-10 -10l-5 -4q-12 -10 -20.5 -13t-14.5 -1q-4 1 -6.5 2.5t-4.5 3.5l-24 19l-10 9l-59 48l-7 5q-21 16 -41 29q-6 5 -6 9.5t5 12.5l153 233q7 11 16 9l2 -1q1 0 5 -2q2 -2 4 -2
q13 -8 26 -16.5t26 -17.5l11 -9q11 -9 20 -18t17 -20l6 -8l9 -16zM986 -275q8 -28 -0.5 -58t-29.5 -62q-17 -26 -34.5 -48.5t-38.5 -42.5q-13 -14 -23 -20t-17 -7.5t-12 0.5t-9 5q-35 28 -68.5 56.5t-73.5 53.5q-5 7 -5 10.5t5 11.5l152 234q7 9 13.5 8.5t14.5 -5.5
q20 -12 40.5 -25.5t37.5 -30.5t30 -36.5t18 -43.5zM813 -663q8 -28 -0.5 -58t-29.5 -62q-17 -26 -34.5 -48.5t-38.5 -42.5q-13 -14 -23 -20t-17 -7.5t-12 0.5t-9 5q-35 28 -68.5 56.5t-73.5 53.5q-5 7 -5 10.5t5 11.5l152 234q7 9 13.5 8.5t14.5 -5.5q20 -12 40.5 -25.5
t37.5 -30.5t30 -36.5t18 -43.5zM682 -308q0 -2 0.5 -2.5t0.5 -2.5v-15l-2 -15l-2 -6q-2 -6 -3.5 -12t-4.5 -12l-2 -6l-3 -6l-5 -10l-12 -19q-2 -2 -3.5 -4.5t-3.5 -5.5q-2 -4 -4.5 -7.5t-5.5 -7.5q-4 -6 -7 -9q-2 -2 -3.5 -5t-3.5 -5l-9 -11l-7 -9l-12 -13q-3 -4 -6.5 -7
t-7.5 -7q-17 -17 -27 -22q-2 -2 -3.5 -2.5t-3.5 -1.5q-8 -3 -13 -2q-8 0 -14 6l-7 6q-9 6 -17 14l-10 8q-14 12 -29 24.5t-30 23.5l-7 6q-10 8 -20 14.5t-21 13.5q-6 5 -6 9.5t5 12.5l153 233l3 4l3 3q4 4 12 2q1 -1 2 -1l3 -2l4 -2l16 -9l8 -5l12 -8t12 -9l4 -3l22 -18
l17 -18l6 -7q9 -11 18 -28q2 -3 3.5 -6t2.5 -6l3 -9l3 -10z" />
    <glyph glyph-name="Tezh" unicode="&#xfe97;&#xfb8b;" horiz-adv-x="958" 
d="M845 819q-16 -59 -40 -104t-50 -73q-26 -26 -58 -48t-68 -36q-37 -15 -63 -33.5t-43 -39.5q-26 -28 -45 -77.5t-39.5 -104.5t-45 -107.5t-61.5 -86.5q-51 -54 -151 -73l-183 -31q-8 -1 -19.5 -1.5t-16.5 0.5q-23 7 -14 30.5t47 47.5q77 51 123 82.5t75 51.5t46.5 33
t37.5 29q81 61 112 128q18 35 33 68t31.5 65t35.5 63.5t44 63.5q26 32 70 62.5t106 60.5q72 37 93 96q12 28 28.5 53t34.5 27q20 -3 10 -43q-5 -20 -12.5 -45.5t-17.5 -57.5zM1209 1591q8 -28 -0.5 -58t-29.5 -62q-17 -26 -34.5 -48.5t-38.5 -42.5q-13 -14 -23 -20t-17 -7.5
t-12 0.5t-9 5q-35 28 -68.5 56.5t-73.5 53.5q-5 7 -5 10.5t5 11.5l152 234q7 9 13.5 8.5t14.5 -5.5q20 -12 40.5 -25.5t37.5 -30.5t30 -36.5t18 -43.5zM903 1572q0 -4 1 -6q0 -3 1 -5q0 -2 0.5 -4.5t0.5 -4.5v-14q0 -2 -0.5 -4.5t-0.5 -4.5l-3 -12q0 -2 -0.5 -3t-0.5 -3
l-4 -12q-2 -4 -3.5 -8t-3.5 -8q0 -1 -0.5 -1.5t-0.5 -1.5l-5 -9q-2 -5 -5 -8.5t-5 -7.5q-2 -2 -2 -3l-12 -18l-5 -7q-2 -2 -3.5 -5t-3.5 -5q-4 -6 -7 -9l-16 -20q-2 -2 -2 -3q-2 -2 -4.5 -5t-5.5 -5l-6 -6q-3 -5 -8 -8l-10 -10l-5 -4q-11 -9 -19 -12l-6 -2h-7q-8 0 -14 6
q-22 17 -42.5 35t-43.5 35q-7 6 -14 11q-21 16 -41 29q-1 0 -1 1q-5 5 -5 9t5 12l153 233q0 1 1 2q7 9 15 7l2 -1q1 0 2 -1l7 -3q2 -2 4 -2.5t4 -2.5l4 -2t4 -3q4 -2 8 -5q6 -4 12 -7.5t12 -8.5l4 -3q16 -12 33 -29l12 -14l9 -12q7 -10 11 -20q2 -3 4 -9l3 -9q1 -1 1 -2
t1 -3q0 -3 1 -4zM611 1895q8 -28 -0.5 -58t-29.5 -62q-17 -26 -34.5 -48.5t-38.5 -42.5q-13 -14 -23 -20t-17 -7.5t-12 0.5t-9 5q-35 28 -68.5 56.5t-73.5 53.5q-5 7 -5 10.5t5 11.5l152 234q7 9 13.5 8.5t14.5 -5.5q20 -12 40.5 -25.5t37.5 -30.5t30 -36.5t18 -43.5z
M473 2256q8 -28 -0.5 -58t-29.5 -62q-17 -26 -34.5 -48.5t-38.5 -42.5q-13 -14 -23 -20t-17 -7.5t-12 0.5t-9 5q-35 28 -68.5 56.5t-73.5 53.5q-5 7 -5 10.5t5 11.5l152 234q7 9 13.5 8.5t14.5 -5.5q20 -12 40.5 -25.5t37.5 -30.5t30 -36.5t18 -43.5zM295 1903q2 -5 3.5 -9
t3.5 -9l3 -9q0 -4 1 -6q0 -2 0.5 -4t0.5 -4t0.5 -3t0.5 -3q0 -19 -4 -35q0 -2 -0.5 -3t-0.5 -3l-4 -12l-3 -6q-1 -2 -1.5 -5t-2.5 -5l-6 -12l-12 -19l-17 -25q-5 -8 -11 -15.5t-12 -15.5l-16 -18t-17 -17l-10 -10l-5 -4q-12 -10 -20.5 -13t-14.5 -1q-4 1 -6.5 2.5t-4.5 3.5
l-24 19l-10 9l-59 48l-7 5q-21 16 -41 29q-6 5 -6 9.5t5 12.5l153 233q7 11 16 9l2 -1q1 0 5 -2q2 -2 4 -2q13 -8 26 -16.5t26 -17.5l11 -9q11 -9 20 -18t17 -20l6 -8l9 -16z" />
    <glyph glyph-name="Ee_Re" unicode="&#xfe8b;&#xfeae;" horiz-adv-x="859" 
d="M891 930q-75 -267 -168 -314q-131 -63 -159 -84q-29 -22 -38 -34q-30 -42 -58 -108q-50 -126 -80 -194q-49 -103 -147 -147q-46 -18 -123 -31q-79 -17 -124 -17q-39 -4 -50 18q-3 14 30 38q12 9 83 60q7 7 108 70q78 53 73 50q87 69 120 108q11 13 71 150q61 136 93 177
q31 42 99 85q25 14 88 47q56 27 78 46q21 18 54 78q33 59 47 57q13 -4 3 -55zM526 1354q-29 -21 -38.5 -20.5t-1.5 20.5t34.5 52t57.5 66l13 13v4q-32 13 -64.5 32.5t-29.5 32.5q1 33 103 136q56 62 57 62q46 37 86 32q22 -2 40.5 -19t15.5 -42q-1 -17 -15 -30t-30 -11
q-3 0 -19.5 11t-38.5 13q-21 4 -47.5 -14.5t-26.5 -28.5q-2 -28 27.5 -46t68.5 -20q25 -5 78 17q34 11 79 38q13 6 17.5 3t3.5 -12q-3 -18 -107 -82.5t-179.5 -135.5t-83.5 -71z" />
    <glyph glyph-name="Ee_Ze" unicode="&#xfe8b;&#xfeb0;" horiz-adv-x="859" 
d="M891 930q-75 -267 -168 -314q-131 -63 -159 -84q-29 -22 -38 -34q-30 -42 -58 -108q-50 -126 -80 -194q-49 -103 -147 -147q-46 -18 -123 -31q-79 -17 -124 -17q-39 -4 -50 18q-3 14 30 38q12 9 83 60q7 7 108 70q78 53 73 50q87 69 120 108q11 13 71 150q61 136 93 177
q31 42 99 85q25 14 88 47q56 27 78 46q21 18 54 78q33 59 47 57q13 -4 3 -55zM558 1312q-6 25 -19.5 45.5t-31.5 38t-39 32.5t-42 27q-8 5 -15 5.5t-14 -9.5l-160 -244q-5 -9 -5.5 -13.5t6.5 -9.5q42 -26 77 -56t71 -59q5 -6 16 -2.5t23 11.5t23 17t16 15q17 17 32.5 35.5
t29.5 41.5q23 34 31.5 65t0.5 60zM662 1562q-29 -21 -38.5 -20.5t-1.5 20.5t34.5 52t57.5 66l13 13v4q-32 13 -64.5 32.5t-29.5 32.5q1 33 103 136q56 62 57 62q46 37 86 32q22 -2 40.5 -19t15.5 -42q-1 -17 -15 -30t-30 -11q-3 0 -19.5 11t-38.5 13q-21 4 -47.5 -14.5
t-26.5 -28.5q-2 -28 27.5 -46t68.5 -20q25 -5 78 17q34 11 79 38q13 6 17.5 3t3.5 -12q-3 -18 -107 -82.5t-179.5 -135.5t-83.5 -71z" />
    <glyph glyph-name="Se_Zh" unicode="&#xfe9b;&#xfeb0;" horiz-adv-x="971" 
d="M845 819q-16 -59 -40 -104t-50 -73q-26 -26 -58 -48t-68 -36q-37 -15 -63 -33.5t-43 -39.5q-26 -28 -45 -77.5t-39.5 -104.5t-45 -107.5t-61.5 -86.5q-51 -54 -151 -73l-183 -31q-8 -1 -19.5 -1.5t-16.5 0.5q-23 7 -14 30.5t47 47.5q77 51 123 82.5t75 51.5t46.5 33
t37.5 29q81 61 112 128q18 35 33 68t31.5 65t35.5 63.5t44 63.5q26 32 70 62.5t106 60.5q72 37 93 96q12 28 28.5 53t34.5 27q20 -3 10 -43q-5 -20 -12.5 -45.5t-17.5 -57.5zM1185 1700q8 -28 -0.5 -58t-29.5 -62q-17 -26 -34.5 -48.5t-38.5 -42.5q-13 -14 -23 -20t-17 -7.5
t-12 0.5t-9 5q-35 28 -68.5 56.5t-73.5 53.5q-5 7 -5 10.5t5 11.5l152 234q7 9 13.5 8.5t14.5 -5.5q20 -12 40.5 -25.5t37.5 -30.5t30 -36.5t18 -43.5zM1047 2061q8 -28 -0.5 -58t-29.5 -62q-17 -26 -34.5 -48.5t-38.5 -42.5q-13 -14 -23 -20t-17 -7.5t-12 0.5t-9 5
q-35 28 -68.5 56.5t-73.5 53.5q-5 7 -5 10.5t5 11.5l152 234q7 9 13.5 8.5t14.5 -5.5q20 -12 40.5 -25.5t37.5 -30.5t30 -36.5t18 -43.5zM869 1708q2 -5 3.5 -9t3.5 -9l3 -9q0 -4 1 -6q0 -2 0.5 -4t0.5 -4t0.5 -3t0.5 -3q0 -19 -4 -35q0 -2 -0.5 -3t-0.5 -3l-4 -12l-3 -6
q-1 -2 -1.5 -5t-2.5 -5l-6 -12l-12 -19l-17 -25q-5 -8 -11 -15.5t-12 -15.5l-16 -18t-17 -17l-10 -10l-5 -4q-12 -10 -20.5 -13t-14.5 -1q-4 1 -6.5 2.5t-4.5 3.5l-24 19l-10 9l-59 48l-7 5q-21 16 -41 29q-6 5 -6 9.5t5 12.5l153 233q7 11 16 9l2 -1q1 0 5 -2q2 -2 4 -2
q13 -8 26 -16.5t26 -17.5l11 -9q11 -9 20 -18t17 -20l6 -8l9 -16zM509 1379q8 -29 -0.5 -60t-31.5 -65q-14 -23 -29.5 -41.5t-32.5 -35.5q-5 -6 -16 -15t-23 -17t-23 -11.5t-16 2.5q-36 29 -71 59t-77 56q-7 5 -6.5 9.5t5.5 13.5l160 244q7 10 14 9.5t15 -5.5q21 -12 42 -27
t39 -32.5t31.5 -38t19.5 -45.5z" />
    <glyph glyph-name="Se_Zhe" unicode="&#xfe9b;&#xfb8b;" horiz-adv-x="982" 
d="M845 819q-16 -59 -40 -104t-50 -73q-26 -26 -58 -48t-68 -36q-37 -15 -63 -33.5t-43 -39.5q-26 -28 -45 -77.5t-39.5 -104.5t-45 -107.5t-61.5 -86.5q-51 -54 -151 -73l-183 -31q-8 -1 -19.5 -1.5t-16.5 0.5q-23 7 -14 30.5t47 47.5q77 51 123 82.5t75 51.5t46.5 33
t37.5 29q81 61 112 128q18 35 33 68t31.5 65t35.5 63.5t44 63.5q26 32 70 62.5t106 60.5q72 37 93 96q12 28 28.5 53t34.5 27q20 -3 10 -43q-5 -20 -12.5 -45.5t-17.5 -57.5zM606 1248q8 -28 -0.5 -58t-29.5 -62q-17 -26 -34.5 -48.5t-38.5 -42.5q-13 -14 -23 -20t-17 -7.5
t-12 0.5t-9 5q-35 28 -68.5 56.5t-73.5 53.5q-5 7 -5 10.5t5 11.5l152 234q7 9 13.5 8.5t14.5 -5.5q20 -12 40.5 -25.5t37.5 -30.5t30 -36.5t18 -43.5zM468 1609q8 -28 -0.5 -58t-29.5 -62q-17 -26 -34.5 -48.5t-38.5 -42.5q-13 -14 -23 -20t-17 -7.5t-12 0.5t-9 5
q-35 28 -68.5 56.5t-73.5 53.5q-5 7 -5 10.5t5 11.5l152 234q7 9 13.5 8.5t14.5 -5.5q20 -12 40.5 -25.5t37.5 -30.5t30 -36.5t18 -43.5zM290 1256q2 -5 3.5 -9t3.5 -9l3 -9q0 -4 1 -6q0 -2 0.5 -4t0.5 -4t0.5 -3t0.5 -3q0 -19 -4 -35q0 -2 -0.5 -3t-0.5 -3l-4 -12l-3 -6
q-1 -2 -1.5 -5t-2.5 -5l-6 -12l-12 -19l-17 -25q-5 -8 -11 -15.5t-12 -15.5l-16 -18t-17 -17l-10 -10l-5 -4q-12 -10 -20.5 -13t-14.5 -1q-4 1 -6.5 2.5t-4.5 3.5l-24 19l-10 9l-59 48l-7 5q-21 16 -41 29q-6 5 -6 9.5t5 12.5l153 233q7 11 16 9l2 -1q1 0 5 -2q2 -2 4 -2
q13 -8 26 -16.5t26 -17.5l11 -9q11 -9 20 -18t17 -20l6 -8l9 -16zM1187 1747q8 -28 -0.5 -58t-29.5 -62q-17 -26 -34.5 -48.5t-38.5 -42.5q-13 -14 -23 -20t-17 -7.5t-12 0.5t-9 5q-35 28 -68.5 56.5t-73.5 53.5q-5 7 -5 10.5t5 11.5l152 234q7 9 13.5 8.5t14.5 -5.5
q20 -12 40.5 -25.5t37.5 -30.5t30 -36.5t18 -43.5zM1049 2108q8 -28 -0.5 -58t-29.5 -62q-17 -26 -34.5 -48.5t-38.5 -42.5q-13 -14 -23 -20t-17 -7.5t-12 0.5t-9 5q-35 28 -68.5 56.5t-73.5 53.5q-5 7 -5 10.5t5 11.5l152 234q7 9 13.5 8.5t14.5 -5.5q20 -12 40.5 -25.5
t37.5 -30.5t30 -36.5t18 -43.5zM871 1755q2 -5 3.5 -9t3.5 -9l3 -9q0 -4 1 -6q0 -2 0.5 -4t0.5 -4t0.5 -3t0.5 -3q0 -19 -4 -35q0 -2 -0.5 -3t-0.5 -3l-4 -12l-3 -6q-1 -2 -1.5 -5t-2.5 -5l-6 -12l-12 -19l-17 -25q-5 -8 -11 -15.5t-12 -15.5l-16 -18t-17 -17l-10 -10l-5 -4
q-12 -10 -20.5 -13t-14.5 -1q-4 1 -6.5 2.5t-4.5 3.5l-24 19l-10 9l-59 48l-7 5q-21 16 -41 29q-6 5 -6 9.5t5 12.5l153 233q7 11 16 9l2 -1q1 0 5 -2q2 -2 4 -2q13 -8 26 -16.5t26 -17.5l11 -9q11 -9 20 -18t17 -20l6 -8l9 -16z" />
    <glyph glyph-name="Ee_Zhe" unicode="&#xfe8b;&#xfb8b;" horiz-adv-x="982" 
d="M845 819q10 32 17.5 57.5t12.5 45.5q10 40 -10 43q-18 -2 -34.5 -27t-28.5 -53q-21 -59 -93 -96q-62 -30 -106 -60.5t-70 -62.5q-25 -32 -44 -63.5t-35.5 -63.5t-31.5 -65t-33 -68q-31 -67 -112 -128q-20 -16 -37.5 -29t-46.5 -33t-75 -51.5t-123 -82.5
q-38 -24 -47 -47.5t14 -30.5q5 -1 16.5 -0.5t19.5 1.5l183 31q100 19 151 73q37 34 61.5 86.5t45 107.5t39.5 104.5t45 77.5q17 21 43 39.5t63 33.5q36 14 68 36t58 48q26 28 50 73t40 104zM606 1248q-5 24 -18 43.5t-30 36.5t-37.5 30.5t-40.5 25.5q-8 5 -14.5 5.5
t-13.5 -8.5l-152 -234q-5 -8 -5 -11.5t5 -10.5q40 -25 73.5 -53.5t68.5 -56.5q4 -3 9 -5t12 -0.5t17 7.5t23 20q21 20 38.5 42.5t34.5 48.5q21 32 29.5 62t0.5 58zM468 1609q-5 24 -18 43.5t-30 36.5t-37.5 30.5t-40.5 25.5q-8 5 -14.5 5.5t-13.5 -8.5l-152 -234
q-5 -8 -5 -11.5t5 -10.5q40 -25 73.5 -53.5t68.5 -56.5q4 -3 9 -5t12 -0.5t17 7.5t23 20q21 20 38.5 42.5t34.5 48.5q21 32 29.5 62t0.5 58zM290 1256l-2 4l-9 16l-6 8q-8 11 -17 20t-20 18l-11 9q-13 9 -26 17.5t-26 16.5q-2 0 -4 2q-4 2 -5 2l-2 1q-9 2 -16 -9l-153 -233
q-5 -8 -5 -12.5t6 -9.5q20 -13 41 -29l7 -5l59 -48l10 -9l24 -19q2 -2 4.5 -3.5t6.5 -2.5q6 -2 14.5 1t20.5 13l5 4l10 10q9 8 17 17l16 18q6 8 12 15.5t11 15.5l17 25l12 19l6 12q2 2 2.5 5t1.5 5l3 6l4 12q0 2 0.5 3t0.5 3q4 16 4 35q0 2 -0.5 3t-0.5 3t-0.5 4t-0.5 4
q-1 2 -1 6l-3 9q-2 5 -3.5 9t-3.5 9zM772 1549q-24 -17 -32 -16.5t-1 17t28.5 42t48.5 53.5l10 10v4q-26 10 -53 26t-25 26q1 27 86 111q46 50 47 50q38 30 71 26q19 -1 34.5 -15t13.5 -35q-2 -14 -13.5 -24t-24.5 -9q-3 0 -16.5 9t-32.5 10q-17 4 -38.5 -11t-21.5 -23
q-3 -23 22 -37.5t57 -16.5q20 -3 65 14q28 9 66 31q10 4 14 2t3 -9q-2 -15 -89 -67.5t-149.5 -110t-69.5 -57.5z" />
    <glyph glyph-name="Kar" unicode="&#xfb90;&#xfeae;" horiz-adv-x="1051" 
d="M945 1150q-3 -34 -10 -268q-9 -260 -33 -431q-11 -105 -78 -247q-65 -141 -180 -202q-19 -13 -39 -23.5t-43 -21.5q-35 -18 -63 -36t-49 -38q-26 -28 -47.5 -67.5t-41.5 -93.5q-19 -57 -45.5 -98t-61.5 -73q-20 -21 -58 -38.5t-92 -24.5l-185 -21q-28 -1 -34 0
q-13 2 -16.5 9.5t1 18.5t17 24t30.5 25q58 39 96 61.5t68 39t59 33t70 44.5q39 25 66 52t44 56q18 29 34 61t33 64q17 31 38.5 63t48.5 64q26 29 65.5 58.5t95.5 55.5q65 36 78 46q54 35 57 64q19 66 24 232q4 164 4 234q0 144 24 221q26 75 62 159q49 103 64 133
q17 11 12 -24q-15 -88 -15 -111zM1095 1521q74 70 346.5 292.5t390.5 329.5t234 219.5t121 122.5q27 23 16.5 -22.5t-122.5 -226.5q-205 -213 -417.5 -394.5t-561.5 -443.5q-21 -21 -43.5 -37.5t-42.5 -33.5q-43 -34 -49 -20q25 68 56 122q35 59 72 92z" />
    <glyph glyph-name="Kaz" unicode="&#xfb90;&#xfeb0;" horiz-adv-x="1040" 
d="M934 1150q-3 -34 -10 -268q-9 -260 -33 -431q-11 -105 -78 -247q-65 -141 -180 -202q-19 -13 -39 -23.5t-43 -21.5q-35 -18 -63 -36t-49 -38q-26 -28 -47.5 -67.5t-41.5 -93.5q-19 -57 -45.5 -98t-61.5 -73q-20 -21 -58 -38.5t-92 -24.5l-185 -21q-28 -1 -34 0
q-13 2 -16.5 9.5t1 18.5t17 24t30.5 25q58 39 96 61.5t68 39t59 33t70 44.5q39 25 66 52t44 56q18 29 34 61t33 64q17 31 38.5 63t48.5 64q26 29 65.5 58.5t95.5 55.5q65 36 78 46q54 35 57 64q19 66 24 232q4 164 4 234q0 144 24 221q26 75 62 159q49 103 64 133
q17 11 12 -24q-15 -88 -15 -111zM1084 1521q74 70 346.5 292.5t390.5 329.5t234 219.5t121 122.5q27 23 16.5 -22.5t-122.5 -226.5q-205 -213 -417.5 -394.5t-561.5 -443.5q-21 -21 -43.5 -37.5t-42.5 -33.5q-43 -34 -49 -20q25 68 56 122q35 59 72 92zM566 991
q8 -29 -0.5 -60t-31.5 -65q-14 -23 -29.5 -41.5t-32.5 -35.5q-5 -6 -16 -15t-23 -17t-23 -11.5t-16 2.5q-36 29 -71 59t-77 56q-7 5 -6.5 9.5t5.5 13.5l160 244q7 10 14 9.5t15 -5.5q21 -12 42 -27t39 -32.5t31.5 -38t19.5 -45.5z" />
    <glyph glyph-name="Kazh" unicode="&#xfb90;&#xfb8b;" horiz-adv-x="1062" 
d="M956 1150q-3 -34 -10 -268q-9 -260 -33 -431q-11 -105 -78 -247q-65 -141 -180 -202q-19 -13 -39 -23.5t-43 -21.5q-35 -18 -63 -36t-49 -38q-26 -28 -47.5 -67.5t-41.5 -93.5q-19 -57 -45.5 -98t-61.5 -73q-20 -21 -58 -38.5t-92 -24.5l-185 -21q-28 -1 -34 0
q-13 2 -16.5 9.5t1 18.5t17 24t30.5 25q58 39 96 61.5t68 39t59 33t70 44.5q39 25 66 52t44 56q18 29 34 61t33 64q17 31 38.5 63t48.5 64q26 29 65.5 58.5t95.5 55.5q65 36 78 46q54 35 57 64q19 66 24 232q4 164 4 234q0 144 24 221q26 75 62 159q49 103 64 133
q17 11 12 -24q-15 -88 -15 -111zM1106 1521q74 70 346.5 292.5t390.5 329.5t234 219.5t121 122.5q27 23 16.5 -22.5t-122.5 -226.5q-205 -213 -417.5 -394.5t-561.5 -443.5q-21 -21 -43.5 -37.5t-42.5 -33.5q-43 -34 -49 -20q25 68 56 122q35 59 72 92zM628 998
q8 -28 -0.5 -58t-29.5 -62q-17 -26 -34.5 -48.5t-38.5 -42.5q-13 -14 -23 -20t-17 -7.5t-12 0.5t-9 5q-35 28 -68.5 56.5t-73.5 53.5q-5 7 -5 10.5t5 11.5l152 234q7 9 13.5 8.5t14.5 -5.5q20 -12 40.5 -25.5t37.5 -30.5t30 -36.5t18 -43.5zM490 1359q8 -28 -0.5 -58
t-29.5 -62q-17 -26 -34.5 -48.5t-38.5 -42.5q-13 -14 -23 -20t-17 -7.5t-12 0.5t-9 5q-35 28 -68.5 56.5t-73.5 53.5q-5 7 -5 10.5t5 11.5l152 234q7 9 13.5 8.5t14.5 -5.5q20 -12 40.5 -25.5t37.5 -30.5t30 -36.5t18 -43.5zM312 1006q2 -5 3.5 -9t3.5 -9l3 -9q0 -4 1 -6
q0 -2 0.5 -4t0.5 -4t0.5 -3t0.5 -3q0 -19 -4 -35q0 -2 -0.5 -3t-0.5 -3l-4 -12l-3 -6q-1 -2 -1.5 -5t-2.5 -5l-6 -12l-12 -19l-17 -25q-5 -8 -11 -15.5t-12 -15.5l-16 -18t-17 -17l-10 -10l-5 -4q-12 -10 -20.5 -13t-14.5 -1q-4 1 -6.5 2.5t-4.5 3.5l-24 19l-10 9l-59 48
l-7 5q-21 16 -41 29q-6 5 -6 9.5t5 12.5l153 233q7 11 16 9l2 -1q1 0 5 -2q2 -2 4 -2q13 -8 26 -16.5t26 -17.5l11 -9q11 -9 20 -18t17 -20l6 -8l9 -16z" />
    <glyph glyph-name="Gar" unicode="&#xfb94;&#xfeae;" horiz-adv-x="1062" 
d="M956 1150q-3 -34 -10 -268q-9 -260 -33 -431q-11 -105 -78 -247q-65 -141 -180 -202q-19 -13 -39 -23.5t-43 -21.5q-35 -18 -63 -36t-49 -38q-26 -28 -47.5 -67.5t-41.5 -93.5q-19 -57 -45.5 -98t-61.5 -73q-20 -21 -58 -38.5t-92 -24.5l-185 -21q-28 -1 -34 0
q-13 2 -16.5 9.5t1 18.5t17 24t30.5 25q58 39 96 61.5t68 39t59 33t70 44.5q39 25 66 52t44 56q18 29 34 61t33 64q17 31 38.5 63t48.5 64q26 29 65.5 58.5t95.5 55.5q65 36 78 46q54 35 57 64q19 66 24 232q4 164 4 234q0 144 24 221q26 75 62 159q49 103 64 133
q17 11 12 -24q-15 -88 -15 -111zM1106 1521q74 70 346.5 292.5t390.5 329.5t234 219.5t121 122.5q27 23 16.5 -22.5t-122.5 -226.5q-205 -213 -417.5 -394.5t-561.5 -443.5q-21 -21 -43.5 -37.5t-42.5 -33.5q-43 -34 -49 -20q25 68 56 122q35 59 72 92zM1940 2358
q-33 -36 -112.5 -104t-267.5 -218q-7 -1 2 19.5t33 54.5q44 40 132 114.5t240 198.5q31 18 -27 -65z" />
    <glyph glyph-name="Gaz" unicode="&#xfb94;&#xfeb0;" horiz-adv-x="1034" 
d="M928 1150q-3 -34 -10 -268q-9 -260 -33 -431q-11 -105 -78 -247q-65 -141 -180 -202q-19 -13 -39 -23.5t-43 -21.5q-35 -18 -63 -36t-49 -38q-26 -28 -47.5 -67.5t-41.5 -93.5q-19 -57 -45.5 -98t-61.5 -73q-20 -21 -58 -38.5t-92 -24.5l-185 -21q-28 -1 -34 0
q-13 2 -16.5 9.5t1 18.5t17 24t30.5 25q58 39 96 61.5t68 39t59 33t70 44.5q39 25 66 52t44 56q18 29 34 61t33 64q17 31 38.5 63t48.5 64q26 29 65.5 58.5t95.5 55.5q65 36 78 46q54 35 57 64q19 66 24 232q4 164 4 234q0 144 24 221q26 75 62 159q49 103 64 133
q17 11 12 -24q-15 -88 -15 -111zM1078 1521q74 70 346.5 292.5t390.5 329.5t234 219.5t121 122.5q27 23 16.5 -22.5t-122.5 -226.5q-205 -213 -417.5 -394.5t-561.5 -443.5q-21 -21 -43.5 -37.5t-42.5 -33.5q-43 -34 -49 -20q25 68 56 122q35 59 72 92zM1912 2358
q-33 -36 -112.5 -104t-267.5 -218q-7 -1 2 19.5t33 54.5q44 40 132 114.5t240 198.5q31 18 -27 -65zM533 897q8 -29 -0.5 -60t-31.5 -65q-14 -23 -29.5 -41.5t-32.5 -35.5q-5 -6 -16 -15t-23 -17t-23 -11.5t-16 2.5q-36 29 -71 59t-77 56q-7 5 -6.5 9.5t5.5 13.5l160 244
q7 10 14 9.5t15 -5.5q21 -12 42 -27t39 -32.5t31.5 -38t19.5 -45.5z" />
    <glyph glyph-name="Gazh" unicode="&#xfb94;&#xfb8b;" horiz-adv-x="1045" 
d="M939 1150q-3 -34 -10 -268q-9 -260 -33 -431q-11 -105 -78 -247q-65 -141 -180 -202q-19 -13 -39 -23.5t-43 -21.5q-35 -18 -63 -36t-49 -38q-26 -28 -47.5 -67.5t-41.5 -93.5q-19 -57 -45.5 -98t-61.5 -73q-20 -21 -58 -38.5t-92 -24.5l-185 -21q-28 -1 -34 0
q-13 2 -16.5 9.5t1 18.5t17 24t30.5 25q58 39 96 61.5t68 39t59 33t70 44.5q39 25 66 52t44 56q18 29 34 61t33 64q17 31 38.5 63t48.5 64q26 29 65.5 58.5t95.5 55.5q65 36 78 46q54 35 57 64q19 66 24 232q4 164 4 234q0 144 24 221q26 75 62 159q49 103 64 133
q17 11 12 -24q-15 -88 -15 -111zM1089 1521q74 70 346.5 292.5t390.5 329.5t234 219.5t121 122.5q27 23 16.5 -22.5t-122.5 -226.5q-205 -213 -417.5 -394.5t-561.5 -443.5q-21 -21 -43.5 -37.5t-42.5 -33.5q-43 -34 -49 -20q25 68 56 122q35 59 72 92zM1923 2358
q-33 -36 -112.5 -104t-267.5 -218q-7 -1 2 19.5t33 54.5q44 40 132 114.5t240 198.5q31 18 -27 -65zM650 1015q8 -28 -0.5 -58t-29.5 -62q-17 -26 -34.5 -48.5t-38.5 -42.5q-13 -14 -23 -20t-17 -7.5t-12 0.5t-9 5q-35 28 -68.5 56.5t-73.5 53.5q-5 7 -5 10.5t5 11.5
l152 234q7 9 13.5 8.5t14.5 -5.5q20 -12 40.5 -25.5t37.5 -30.5t30 -36.5t18 -43.5zM512 1376q8 -28 -0.5 -58t-29.5 -62q-17 -26 -34.5 -48.5t-38.5 -42.5q-13 -14 -23 -20t-17 -7.5t-12 0.5t-9 5q-35 28 -68.5 56.5t-73.5 53.5q-5 7 -5 10.5t5 11.5l152 234q7 9 13.5 8.5
t14.5 -5.5q20 -12 40.5 -25.5t37.5 -30.5t30 -36.5t18 -43.5zM334 1023q2 -5 3.5 -9t3.5 -9l3 -9q0 -4 1 -6q0 -2 0.5 -4t0.5 -4t0.5 -3t0.5 -3q0 -19 -4 -35q0 -2 -0.5 -3t-0.5 -3l-4 -12l-3 -6q-1 -2 -1.5 -5t-2.5 -5l-6 -12l-12 -19l-17 -25q-5 -8 -11 -15.5t-12 -15.5
l-16 -18t-17 -17l-10 -10l-5 -4q-12 -10 -20.5 -13t-14.5 -1q-4 1 -6.5 2.5t-4.5 3.5l-24 19l-10 9l-59 48l-7 5q-21 16 -41 29q-6 5 -6 9.5t5 12.5l153 233q7 11 16 9l2 -1q1 0 5 -2q2 -2 4 -2q13 -8 26 -16.5t26 -17.5l11 -9q11 -9 20 -18t17 -20l6 -8l9 -16z" />
    <glyph glyph-name="Lar" unicode="&#xfedf;&#xfeae;" horiz-adv-x="1068" 
d="M962 1150q-3 -34 -10 -268q-9 -260 -33 -431q-11 -105 -78 -247q-65 -141 -180 -202q-19 -13 -39 -23.5t-43 -21.5q-35 -18 -63 -36t-49 -38q-26 -28 -47.5 -67.5t-41.5 -93.5q-19 -57 -45.5 -98t-61.5 -73q-20 -21 -58 -38.5t-92 -24.5l-185 -21q-28 -1 -34 0
q-13 2 -16.5 9.5t1 18.5t17 24t30.5 25q58 39 96 61.5t68 39t59 33t70 44.5q39 25 66 52t44 56q18 29 34 61t33 64q17 31 38.5 63t48.5 64q26 29 65.5 58.5t95.5 55.5q65 36 78 46q54 35 57 64q19 66 24 232q4 164 4 234q0 144 24 221q26 75 62 159q49 103 64 133
q17 11 12 -24q-15 -88 -15 -111z" />
    <glyph glyph-name="Laz" unicode="&#xfedf;&#xfeb0;" horiz-adv-x="1062" 
d="M956 1150q-3 -34 -10 -268q-9 -260 -33 -431q-11 -105 -78 -247q-65 -141 -180 -202q-19 -13 -39 -23.5t-43 -21.5q-35 -18 -63 -36t-49 -38q-26 -28 -47.5 -67.5t-41.5 -93.5q-19 -57 -45.5 -98t-61.5 -73q-20 -21 -58 -38.5t-92 -24.5l-185 -21q-28 -1 -34 0
q-13 2 -16.5 9.5t1 18.5t17 24t30.5 25q58 39 96 61.5t68 39t59 33t70 44.5q39 25 66 52t44 56q18 29 34 61t33 64q17 31 38.5 63t48.5 64q26 29 65.5 58.5t95.5 55.5q65 36 78 46q54 35 57 64q19 66 24 232q4 164 4 234q0 144 24 221q26 75 62 159q49 103 64 133
q17 11 12 -24q-15 -88 -15 -111zM569 857q8 -29 -0.5 -60t-31.5 -65q-14 -23 -29.5 -41.5t-32.5 -35.5q-5 -6 -16 -15t-23 -17t-23 -11.5t-16 2.5q-36 29 -71 59t-77 56q-7 5 -6.5 9.5t5.5 13.5l160 244q7 10 14 9.5t15 -5.5q21 -12 42 -27t39 -32.5t31.5 -38t19.5 -45.5z
" />
    <glyph glyph-name="Lazh" unicode="&#xfedf;&#xfb8b;" horiz-adv-x="1071" 
d="M965 1150q-3 -34 -10 -268q-9 -260 -33 -431q-11 -105 -78 -247q-65 -141 -180 -202q-19 -13 -39 -23.5t-43 -21.5q-35 -18 -63 -36t-49 -38q-26 -28 -47.5 -67.5t-41.5 -93.5q-19 -57 -45.5 -98t-61.5 -73q-20 -21 -58 -38.5t-92 -24.5l-185 -21q-28 -1 -34 0
q-13 2 -16.5 9.5t1 18.5t17 24t30.5 25q58 39 96 61.5t68 39t59 33t70 44.5q39 25 66 52t44 56q18 29 34 61t33 64q17 31 38.5 63t48.5 64q26 29 65.5 58.5t95.5 55.5q65 36 78 46q54 35 57 64q19 66 24 232q4 164 4 234q0 144 24 221q26 75 62 159q49 103 64 133
q17 11 12 -24q-15 -88 -15 -111zM716 904q8 -28 -0.5 -58t-29.5 -62q-17 -26 -34.5 -48.5t-38.5 -42.5q-13 -14 -23 -20t-17 -7.5t-12 0.5t-9 5q-35 28 -68.5 56.5t-73.5 53.5q-5 7 -5 10.5t5 11.5l152 234q7 9 13.5 8.5t14.5 -5.5q20 -12 40.5 -25.5t37.5 -30.5t30 -36.5
t18 -43.5zM578 1265q8 -28 -0.5 -58t-29.5 -62q-17 -26 -34.5 -48.5t-38.5 -42.5q-13 -14 -23 -20t-17 -7.5t-12 0.5t-9 5q-35 28 -68.5 56.5t-73.5 53.5q-5 7 -5 10.5t5 11.5l152 234q7 9 13.5 8.5t14.5 -5.5q20 -12 40.5 -25.5t37.5 -30.5t30 -36.5t18 -43.5zM400 912
q2 -5 3.5 -9t3.5 -9l3 -9q0 -4 1 -6q0 -2 0.5 -4t0.5 -4t0.5 -3t0.5 -3q0 -19 -4 -35q0 -2 -0.5 -3t-0.5 -3l-4 -12l-3 -6q-1 -2 -1.5 -5t-2.5 -5l-6 -12l-12 -19l-17 -25q-5 -8 -11 -15.5t-12 -15.5l-16 -18t-17 -17l-10 -10l-5 -4q-12 -10 -20.5 -13t-14.5 -1
q-4 1 -6.5 2.5t-4.5 3.5l-24 19l-10 9l-59 48l-7 5q-21 16 -41 29q-6 5 -6 9.5t5 12.5l153 233q7 11 16 9l2 -1q1 0 5 -2q2 -2 4 -2q13 -8 26 -16.5t26 -17.5l11 -9q11 -9 20 -18t17 -20l6 -8l9 -16z" />
    <glyph glyph-name="Har" unicode="&#xfea3;&#xfeae;" horiz-adv-x="1152" 
d="M920 820q-22 -39 -46 -78.5t-53.5 -74.5t-65 -63.5t-80.5 -45.5q-37 -15 -63 -33.5t-43 -39.5q-26 -28 -45 -77.5t-39.5 -104.5t-45 -107.5t-61.5 -86.5q-51 -54 -151 -73l-183 -31q-8 -1 -19.5 -1.5t-16.5 0.5q-23 7 -14 30.5t47 47.5q77 51 123 82.5t75 51.5t46.5 33
t37.5 29q81 61 112 128q18 35 33 68t31.5 65t35.5 63.5t44 63.5q26 32 70 62.5t106 60.5q7 3 23 13.5t39 33.5t52.5 62.5t62.5 100.5q-12 12 -69 33q-57 22 -108 25q-47 3 -77.5 -17t-55.5 -57t-43 -34q-6 3 -2 25q5 22 14 43q38 87 86 129q49 43 117 43q49 0 123 -24
q46 -16 79 -16q69 0 137 49q15 0 10.5 -19.5t-13.5 -45.5q-8 -26 -11 -35q-15 -47 -24 -55q-9 -7 -52 -38q-24 -18 -41.5 -41.5t-35.5 -55.5t-46 -88z" />
    <glyph glyph-name="Haz" unicode="&#xfea3;&#xfeb0;" horiz-adv-x="1152" 
d="M920 820q-22 -39 -46 -78.5t-53.5 -74.5t-65 -63.5t-80.5 -45.5q-37 -15 -63 -33.5t-43 -39.5q-26 -28 -45 -77.5t-39.5 -104.5t-45 -107.5t-61.5 -86.5q-51 -54 -151 -73l-183 -31q-8 -1 -19.5 -1.5t-16.5 0.5q-23 7 -14 30.5t47 47.5q77 51 123 82.5t75 51.5t46.5 33
t37.5 29q81 61 112 128q18 35 33 68t31.5 65t35.5 63.5t44 63.5q26 32 70 62.5t106 60.5q7 3 23 13.5t39 33.5t52.5 62.5t62.5 100.5q-12 12 -69 33q-57 22 -108 25q-47 3 -77.5 -17t-55.5 -57t-43 -34q-6 3 -2 25q5 22 14 43q38 87 86 129q49 43 117 43q49 0 123 -24
q46 -16 79 -16q69 0 137 49q15 0 10.5 -19.5t-13.5 -45.5q-8 -26 -11 -35q-15 -47 -24 -55q-9 -7 -52 -38q-24 -18 -41.5 -41.5t-35.5 -55.5t-46 -88zM450 1618q8 -29 -0.5 -60t-31.5 -65q-14 -23 -29.5 -41.5t-32.5 -35.5q-5 -6 -16 -15t-23 -17t-23 -11.5t-16 2.5
q-36 29 -71 59t-77 56q-7 5 -6.5 9.5t5.5 13.5l160 244q7 10 14 9.5t15 -5.5q21 -12 42 -27t39 -32.5t31.5 -38t19.5 -45.5z" />
    <glyph glyph-name="Hazh" unicode="&#xfea3;&#xfb8b;" horiz-adv-x="1152" 
d="M920 820q-22 -39 -46 -78.5t-53.5 -74.5t-65 -63.5t-80.5 -45.5q-37 -15 -63 -33.5t-43 -39.5q-26 -28 -45 -77.5t-39.5 -104.5t-45 -107.5t-61.5 -86.5q-51 -54 -151 -73l-183 -31q-8 -1 -19.5 -1.5t-16.5 0.5q-23 7 -14 30.5t47 47.5q77 51 123 82.5t75 51.5t46.5 33
t37.5 29q81 61 112 128q18 35 33 68t31.5 65t35.5 63.5t44 63.5q26 32 70 62.5t106 60.5q7 3 23 13.5t39 33.5t52.5 62.5t62.5 100.5q-12 12 -69 33q-57 22 -108 25q-47 3 -77.5 -17t-55.5 -57t-43 -34q-6 3 -2 25q5 22 14 43q38 87 86 129q49 43 117 43q49 0 123 -24
q46 -16 79 -16q69 0 137 49q15 0 10.5 -19.5t-13.5 -45.5q-8 -26 -11 -35q-15 -47 -24 -55q-9 -7 -52 -38q-24 -18 -41.5 -41.5t-35.5 -55.5t-46 -88zM713 1702q8 -28 -0.5 -58t-29.5 -62q-17 -26 -34.5 -48.5t-38.5 -42.5q-13 -14 -23 -20t-17 -7.5t-12 0.5t-9 5
q-35 28 -68.5 56.5t-73.5 53.5q-5 7 -5 10.5t5 11.5l152 234q7 9 13.5 8.5t14.5 -5.5q20 -12 40.5 -25.5t37.5 -30.5t30 -36.5t18 -43.5zM575 2063q8 -28 -0.5 -58t-29.5 -62q-17 -26 -34.5 -48.5t-38.5 -42.5q-13 -14 -23 -20t-17 -7.5t-12 0.5t-9 5q-35 28 -68.5 56.5
t-73.5 53.5q-5 7 -5 10.5t5 11.5l152 234q7 9 13.5 8.5t14.5 -5.5q20 -12 40.5 -25.5t37.5 -30.5t30 -36.5t18 -43.5zM397 1710q2 -5 3.5 -9t3.5 -9l3 -9q0 -4 1 -6q0 -2 0.5 -4t0.5 -4t0.5 -3t0.5 -3q0 -19 -4 -35q0 -2 -0.5 -3t-0.5 -3l-4 -12l-3 -6q-1 -2 -1.5 -5
t-2.5 -5l-6 -12l-12 -19l-17 -25q-5 -8 -11 -15.5t-12 -15.5l-16 -18t-17 -17l-10 -10l-5 -4q-12 -10 -20.5 -13t-14.5 -1q-4 1 -6.5 2.5t-4.5 3.5l-24 19l-10 9l-59 48l-7 5q-21 16 -41 29q-6 5 -6 9.5t5 12.5l153 233q7 11 16 9l2 -1q1 0 5 -2q2 -2 4 -2q13 -8 26 -16.5
t26 -17.5l11 -9q11 -9 20 -18t17 -20l6 -8l9 -16z" />
    <glyph glyph-name="Khar" unicode="&#xfea7;&#xfeae;" horiz-adv-x="1152" 
d="M920 820q-22 -39 -46 -78.5t-53.5 -74.5t-65 -63.5t-80.5 -45.5q-37 -15 -63 -33.5t-43 -39.5q-26 -28 -45 -77.5t-39.5 -104.5t-45 -107.5t-61.5 -86.5q-51 -54 -151 -73l-183 -31q-8 -1 -19.5 -1.5t-16.5 0.5q-23 7 -14 30.5t47 47.5q77 51 123 82.5t75 51.5t46.5 33
t37.5 29q81 61 112 128q18 35 33 68t31.5 65t35.5 63.5t44 63.5q26 32 70 62.5t106 60.5q7 3 23 13.5t39 33.5t52.5 62.5t62.5 100.5q-12 12 -69 33q-57 22 -108 25q-47 3 -77.5 -17t-55.5 -57t-43 -34q-6 3 -2 25q5 22 14 43q38 87 86 129q49 43 117 43q49 0 123 -24
q46 -16 79 -16q69 0 137 49q15 0 10.5 -19.5t-13.5 -45.5q-8 -26 -11 -35q-15 -47 -24 -55q-9 -7 -52 -38q-24 -18 -41.5 -41.5t-35.5 -55.5t-46 -88zM1020 1886q8 -29 -0.5 -60t-31.5 -65q-14 -23 -29.5 -41.5t-32.5 -35.5q-5 -6 -16 -15t-23 -17t-23 -11.5t-16 2.5
q-36 29 -71 59t-77 56q-7 5 -6.5 9.5t5.5 13.5l160 244q7 10 14 9.5t15 -5.5q21 -12 42 -27t39 -32.5t31.5 -38t19.5 -45.5z" />
    <glyph glyph-name="Khaz" unicode="&#xfea7;&#xfeb0;" horiz-adv-x="1152" 
d="M920 820q-22 -39 -46 -78.5t-53.5 -74.5t-65 -63.5t-80.5 -45.5q-37 -15 -63 -33.5t-43 -39.5q-26 -28 -45 -77.5t-39.5 -104.5t-45 -107.5t-61.5 -86.5q-51 -54 -151 -73l-183 -31q-8 -1 -19.5 -1.5t-16.5 0.5q-23 7 -14 30.5t47 47.5q77 51 123 82.5t75 51.5t46.5 33
t37.5 29q81 61 112 128q18 35 33 68t31.5 65t35.5 63.5t44 63.5q26 32 70 62.5t106 60.5q7 3 23 13.5t39 33.5t52.5 62.5t62.5 100.5q-12 12 -69 33q-57 22 -108 25q-47 3 -77.5 -17t-55.5 -57t-43 -34q-6 3 -2 25q5 22 14 43q38 87 86 129q49 43 117 43q49 0 123 -24
q46 -16 79 -16q69 0 137 49q15 0 10.5 -19.5t-13.5 -45.5q-8 -26 -11 -35q-15 -47 -24 -55q-9 -7 -52 -38q-24 -18 -41.5 -41.5t-35.5 -55.5t-46 -88zM1010 1982q8 -29 -0.5 -60t-31.5 -65q-14 -23 -29.5 -41.5t-32.5 -35.5q-5 -6 -16 -15t-23 -17t-23 -11.5t-16 2.5
q-36 29 -71 59t-77 56q-7 5 -6.5 9.5t5.5 13.5l160 244q7 10 14 9.5t15 -5.5q21 -12 42 -27t39 -32.5t31.5 -38t19.5 -45.5zM497 1620q8 -29 -0.5 -60t-31.5 -65q-14 -23 -29.5 -41.5t-32.5 -35.5q-5 -6 -16 -15t-23 -17t-23 -11.5t-16 2.5q-36 29 -71 59t-77 56
q-7 5 -6.5 9.5t5.5 13.5l160 244q7 10 14 9.5t15 -5.5q21 -12 42 -27t39 -32.5t31.5 -38t19.5 -45.5z" />
    <glyph glyph-name="Khazh" unicode="&#xfea7;&#xfb8b;" horiz-adv-x="1152" 
d="M920 820q-22 -39 -46 -78.5t-53.5 -74.5t-65 -63.5t-80.5 -45.5q-37 -15 -63 -33.5t-43 -39.5q-26 -28 -45 -77.5t-39.5 -104.5t-45 -107.5t-61.5 -86.5q-51 -54 -151 -73l-183 -31q-8 -1 -19.5 -1.5t-16.5 0.5q-23 7 -14 30.5t47 47.5q77 51 123 82.5t75 51.5t46.5 33
t37.5 29q81 61 112 128q18 35 33 68t31.5 65t35.5 63.5t44 63.5q26 32 70 62.5t106 60.5q7 3 23 13.5t39 33.5t52.5 62.5t62.5 100.5q-12 12 -69 33q-57 22 -108 25q-47 3 -77.5 -17t-55.5 -57t-43 -34q-6 3 -2 25q5 22 14 43q38 87 86 129q49 43 117 43q49 0 123 -24
q46 -16 79 -16q69 0 137 49q15 0 10.5 -19.5t-13.5 -45.5q-8 -26 -11 -35q-15 -47 -24 -55q-9 -7 -52 -38q-24 -18 -41.5 -41.5t-35.5 -55.5t-46 -88zM585 1613q8 -28 -0.5 -58t-29.5 -62q-17 -26 -34.5 -48.5t-38.5 -42.5q-13 -14 -23 -20t-17 -7.5t-12 0.5t-9 5
q-35 28 -68.5 56.5t-73.5 53.5q-5 7 -5 10.5t5 11.5l152 234q7 9 13.5 8.5t14.5 -5.5q20 -12 40.5 -25.5t37.5 -30.5t30 -36.5t18 -43.5zM447 1974q8 -28 -0.5 -58t-29.5 -62q-17 -26 -34.5 -48.5t-38.5 -42.5q-13 -14 -23 -20t-17 -7.5t-12 0.5t-9 5q-35 28 -68.5 56.5
t-73.5 53.5q-5 7 -5 10.5t5 11.5l152 234q7 9 13.5 8.5t14.5 -5.5q20 -12 40.5 -25.5t37.5 -30.5t30 -36.5t18 -43.5zM269 1621q2 -5 3.5 -9t3.5 -9l3 -9q0 -4 1 -6q0 -2 0.5 -4t0.5 -4t0.5 -3t0.5 -3q0 -19 -4 -35q0 -2 -0.5 -3t-0.5 -3l-4 -12l-3 -6q-1 -2 -1.5 -5
t-2.5 -5l-6 -12l-12 -19l-17 -25q-5 -8 -11 -15.5t-12 -15.5l-16 -18t-17 -17l-10 -10l-5 -4q-12 -10 -20.5 -13t-14.5 -1q-4 1 -6.5 2.5t-4.5 3.5l-24 19l-10 9l-59 48l-7 5q-21 16 -41 29q-6 5 -6 9.5t5 12.5l153 233q7 11 16 9l2 -1q1 0 5 -2q2 -2 4 -2q13 -8 26 -16.5
t26 -17.5l11 -9q11 -9 20 -18t17 -20l6 -8l9 -16zM1085 1997q8 -29 -0.5 -60t-31.5 -65q-14 -23 -29.5 -41.5t-32.5 -35.5q-5 -6 -16 -15t-23 -17t-23 -11.5t-16 2.5q-36 29 -71 59t-77 56q-7 5 -6.5 9.5t5.5 13.5l160 244q7 10 14 9.5t15 -5.5q21 -12 42 -27t39 -32.5
t31.5 -38t19.5 -45.5z" />
    <glyph glyph-name="Jar" unicode="&#xfe9f;&#xfeae;" horiz-adv-x="1152" 
d="M920 820q-22 -39 -46 -78.5t-53.5 -74.5t-65 -63.5t-80.5 -45.5q-37 -15 -63 -33.5t-43 -39.5q-26 -28 -45 -77.5t-39.5 -104.5t-45 -107.5t-61.5 -86.5q-51 -54 -151 -73l-183 -31q-8 -1 -19.5 -1.5t-16.5 0.5q-23 7 -14 30.5t47 47.5q77 51 123 82.5t75 51.5t46.5 33
t37.5 29q81 61 112 128q18 35 33 68t31.5 65t35.5 63.5t44 63.5q26 32 70 62.5t106 60.5q7 3 23 13.5t39 33.5t52.5 62.5t62.5 100.5q-12 12 -69 33q-57 22 -108 25q-47 3 -77.5 -17t-55.5 -57t-43 -34q-6 3 -2 25q5 22 14 43q38 87 86 129q49 43 117 43q49 0 123 -24
q46 -16 79 -16q69 0 137 49q15 0 10.5 -19.5t-13.5 -45.5q-8 -26 -11 -35q-15 -47 -24 -55q-9 -7 -52 -38q-24 -18 -41.5 -41.5t-35.5 -55.5t-46 -88zM1011 -145q8 -29 -0.5 -60t-31.5 -65q-14 -23 -29.5 -41.5t-32.5 -35.5q-5 -6 -16 -15t-23 -17t-23 -11.5t-16 2.5
q-36 29 -71 59t-77 56q-7 5 -6.5 9.5t5.5 13.5l160 244q7 10 14 9.5t15 -5.5q21 -12 42 -27t39 -32.5t31.5 -38t19.5 -45.5z" />
    <glyph glyph-name="Jaz" unicode="&#xfe9f;&#xfeb0;" horiz-adv-x="1152" 
d="M920 820q-22 -39 -46 -78.5t-53.5 -74.5t-65 -63.5t-80.5 -45.5q-37 -15 -63 -33.5t-43 -39.5q-26 -28 -45 -77.5t-39.5 -104.5t-45 -107.5t-61.5 -86.5q-51 -54 -151 -73l-183 -31q-8 -1 -19.5 -1.5t-16.5 0.5q-23 7 -14 30.5t47 47.5q77 51 123 82.5t75 51.5t46.5 33
t37.5 29q81 61 112 128q18 35 33 68t31.5 65t35.5 63.5t44 63.5q26 32 70 62.5t106 60.5q7 3 23 13.5t39 33.5t52.5 62.5t62.5 100.5q-12 12 -69 33q-57 22 -108 25q-47 3 -77.5 -17t-55.5 -57t-43 -34q-6 3 -2 25q5 22 14 43q38 87 86 129q49 43 117 43q49 0 123 -24
q46 -16 79 -16q69 0 137 49q15 0 10.5 -19.5t-13.5 -45.5q-8 -26 -11 -35q-15 -47 -24 -55q-9 -7 -52 -38q-24 -18 -41.5 -41.5t-35.5 -55.5t-46 -88zM566 1678q8 -29 -0.5 -60t-31.5 -65q-14 -23 -29.5 -41.5t-32.5 -35.5q-5 -6 -16 -15t-23 -17t-23 -11.5t-16 2.5
q-36 29 -71 59t-77 56q-7 5 -6.5 9.5t5.5 13.5l160 244q7 10 14 9.5t15 -5.5q21 -12 42 -27t39 -32.5t31.5 -38t19.5 -45.5zM1011 -145q8 -29 -0.5 -60t-31.5 -65q-14 -23 -29.5 -41.5t-32.5 -35.5q-5 -6 -16 -15t-23 -17t-23 -11.5t-16 2.5q-36 29 -71 59t-77 56
q-7 5 -6.5 9.5t5.5 13.5l160 244q7 10 14 9.5t15 -5.5q21 -12 42 -27t39 -32.5t31.5 -38t19.5 -45.5z" />
    <glyph glyph-name="Jazh" unicode="&#xfe9f;&#xfb8b;" horiz-adv-x="1152" 
d="M920 820q-22 -39 -46 -78.5t-53.5 -74.5t-65 -63.5t-80.5 -45.5q-37 -15 -63 -33.5t-43 -39.5q-26 -28 -45 -77.5t-39.5 -104.5t-45 -107.5t-61.5 -86.5q-51 -54 -151 -73l-183 -31q-8 -1 -19.5 -1.5t-16.5 0.5q-23 7 -14 30.5t47 47.5q77 51 123 82.5t75 51.5t46.5 33
t37.5 29q81 61 112 128q18 35 33 68t31.5 65t35.5 63.5t44 63.5q26 32 70 62.5t106 60.5q7 3 23 13.5t39 33.5t52.5 62.5t62.5 100.5q-12 12 -69 33q-57 22 -108 25q-47 3 -77.5 -17t-55.5 -57t-43 -34q-6 3 -2 25q5 22 14 43q38 87 86 129q49 43 117 43q49 0 123 -24
q46 -16 79 -16q69 0 137 49q15 0 10.5 -19.5t-13.5 -45.5q-8 -26 -11 -35q-15 -47 -24 -55q-9 -7 -52 -38q-24 -18 -41.5 -41.5t-35.5 -55.5t-46 -88zM763 1697q8 -28 -0.5 -58t-29.5 -62q-17 -26 -34.5 -48.5t-38.5 -42.5q-13 -14 -23 -20t-17 -7.5t-12 0.5t-9 5
q-35 28 -68.5 56.5t-73.5 53.5q-5 7 -5 10.5t5 11.5l152 234q7 9 13.5 8.5t14.5 -5.5q20 -12 40.5 -25.5t37.5 -30.5t30 -36.5t18 -43.5zM625 2058q8 -28 -0.5 -58t-29.5 -62q-17 -26 -34.5 -48.5t-38.5 -42.5q-13 -14 -23 -20t-17 -7.5t-12 0.5t-9 5q-35 28 -68.5 56.5
t-73.5 53.5q-5 7 -5 10.5t5 11.5l152 234q7 9 13.5 8.5t14.5 -5.5q20 -12 40.5 -25.5t37.5 -30.5t30 -36.5t18 -43.5zM447 1705q2 -5 3.5 -9t3.5 -9l3 -9q0 -4 1 -6q0 -2 0.5 -4t0.5 -4t0.5 -3t0.5 -3q0 -19 -4 -35q0 -2 -0.5 -3t-0.5 -3l-4 -12l-3 -6q-1 -2 -1.5 -5
t-2.5 -5l-6 -12l-12 -19l-17 -25q-5 -8 -11 -15.5t-12 -15.5l-16 -18t-17 -17l-10 -10l-5 -4q-12 -10 -20.5 -13t-14.5 -1q-4 1 -6.5 2.5t-4.5 3.5l-24 19l-10 9l-59 48l-7 5q-21 16 -41 29q-6 5 -6 9.5t5 12.5l153 233q7 11 16 9l2 -1q1 0 5 -2q2 -2 4 -2q13 -8 26 -16.5
t26 -17.5l11 -9q11 -9 20 -18t17 -20l6 -8l9 -16zM1011 -145q8 -29 -0.5 -60t-31.5 -65q-14 -23 -29.5 -41.5t-32.5 -35.5q-5 -6 -16 -15t-23 -17t-23 -11.5t-16 2.5q-36 29 -71 59t-77 56q-7 5 -6.5 9.5t5.5 13.5l160 244q7 10 14 9.5t15 -5.5q21 -12 42 -27t39 -32.5
t31.5 -38t19.5 -45.5z" />
    <glyph glyph-name="Char" unicode="&#xfb7c;&#xfeae;" horiz-adv-x="1152" 
d="M920 820q-22 -39 -46 -78.5t-53.5 -74.5t-65 -63.5t-80.5 -45.5q-37 -15 -63 -33.5t-43 -39.5q-26 -28 -45 -77.5t-39.5 -104.5t-45 -107.5t-61.5 -86.5q-51 -54 -151 -73l-183 -31q-8 -1 -19.5 -1.5t-16.5 0.5q-23 7 -14 30.5t47 47.5q77 51 123 82.5t75 51.5t46.5 33
t37.5 29q81 61 112 128q18 35 33 68t31.5 65t35.5 63.5t44 63.5q26 32 70 62.5t106 60.5q7 3 23 13.5t39 33.5t52.5 62.5t62.5 100.5q-12 12 -69 33q-57 22 -108 25q-47 3 -77.5 -17t-55.5 -57t-43 -34q-6 3 -2 25q5 22 14 43q38 87 86 129q49 43 117 43q49 0 123 -24
q46 -16 79 -16q69 0 137 49q15 0 10.5 -19.5t-13.5 -45.5q-8 -26 -11 -35q-15 -47 -24 -55q-9 -7 -52 -38q-24 -18 -41.5 -41.5t-35.5 -55.5t-46 -88zM1094 -97q8 -28 -0.5 -58t-29.5 -62q-17 -26 -34.5 -48.5t-38.5 -42.5q-13 -14 -23 -20t-17 -7.5t-12 0.5t-9 5
q-35 28 -68.5 56.5t-73.5 53.5q-5 7 -5 10.5t5 11.5l152 234q7 9 13.5 8.5t14.5 -5.5q20 -12 40.5 -25.5t37.5 -30.5t30 -36.5t18 -43.5zM921 -485q8 -28 -0.5 -58t-29.5 -62q-17 -26 -34.5 -48.5t-38.5 -42.5q-13 -14 -23 -20t-17 -7.5t-12 0.5t-9 5q-35 28 -68.5 56.5
t-73.5 53.5q-5 7 -5 10.5t5 11.5l152 234q7 9 13.5 8.5t14.5 -5.5q20 -12 40.5 -25.5t37.5 -30.5t30 -36.5t18 -43.5zM790 -130q0 -2 0.5 -2.5t0.5 -2.5v-15l-2 -15l-2 -6q-2 -6 -3.5 -12t-4.5 -12l-2 -6l-3 -6l-5 -10l-12 -19q-2 -2 -3.5 -4.5t-3.5 -5.5q-2 -4 -4.5 -7.5
t-5.5 -7.5q-4 -6 -7 -9q-2 -2 -3.5 -5t-3.5 -5l-9 -11l-7 -9l-12 -13q-3 -4 -6.5 -7t-7.5 -7q-17 -17 -27 -22q-2 -2 -3.5 -2.5t-3.5 -1.5q-8 -3 -13 -2q-8 0 -14 6l-7 6q-9 6 -17 14l-10 8q-14 12 -29 24.5t-30 23.5l-7 6q-10 8 -20 14.5t-21 13.5q-6 5 -6 9.5t5 12.5
l153 233l3 4l3 3q4 4 12 2q1 -1 2 -1l3 -2l4 -2l16 -9l8 -5l12 -8t12 -9l4 -3l22 -18l17 -18l6 -7q9 -11 18 -28q2 -3 3.5 -6t2.5 -6l3 -9l3 -10z" />
    <glyph glyph-name="Chaz" unicode="&#xfb7c;&#xfeb0;" horiz-adv-x="1152" 
d="M920 820q-22 -39 -46 -78.5t-53.5 -74.5t-65 -63.5t-80.5 -45.5q-37 -15 -63 -33.5t-43 -39.5q-26 -28 -45 -77.5t-39.5 -104.5t-45 -107.5t-61.5 -86.5q-51 -54 -151 -73l-183 -31q-8 -1 -19.5 -1.5t-16.5 0.5q-23 7 -14 30.5t47 47.5q77 51 123 82.5t75 51.5t46.5 33
t37.5 29q81 61 112 128q18 35 33 68t31.5 65t35.5 63.5t44 63.5q26 32 70 62.5t106 60.5q7 3 23 13.5t39 33.5t52.5 62.5t62.5 100.5q-12 12 -69 33q-57 22 -108 25q-47 3 -77.5 -17t-55.5 -57t-43 -34q-6 3 -2 25q5 22 14 43q38 87 86 129q49 43 117 43q49 0 123 -24
q46 -16 79 -16q69 0 137 49q15 0 10.5 -19.5t-13.5 -45.5q-8 -26 -11 -35q-15 -47 -24 -55q-9 -7 -52 -38q-24 -18 -41.5 -41.5t-35.5 -55.5t-46 -88zM566 1534q8 -29 -0.5 -60t-31.5 -65q-14 -23 -29.5 -41.5t-32.5 -35.5q-5 -6 -16 -15t-23 -17t-23 -11.5t-16 2.5
q-36 29 -71 59t-77 56q-7 5 -6.5 9.5t5.5 13.5l160 244q7 10 14 9.5t15 -5.5q21 -12 42 -27t39 -32.5t31.5 -38t19.5 -45.5zM1094 -97q8 -28 -0.5 -58t-29.5 -62q-17 -26 -34.5 -48.5t-38.5 -42.5q-13 -14 -23 -20t-17 -7.5t-12 0.5t-9 5q-35 28 -68.5 56.5t-73.5 53.5
q-5 7 -5 10.5t5 11.5l152 234q7 9 13.5 8.5t14.5 -5.5q20 -12 40.5 -25.5t37.5 -30.5t30 -36.5t18 -43.5zM921 -485q8 -28 -0.5 -58t-29.5 -62q-17 -26 -34.5 -48.5t-38.5 -42.5q-13 -14 -23 -20t-17 -7.5t-12 0.5t-9 5q-35 28 -68.5 56.5t-73.5 53.5q-5 7 -5 10.5t5 11.5
l152 234q7 9 13.5 8.5t14.5 -5.5q20 -12 40.5 -25.5t37.5 -30.5t30 -36.5t18 -43.5zM790 -130q0 -2 0.5 -2.5t0.5 -2.5v-15l-2 -15l-2 -6q-2 -6 -3.5 -12t-4.5 -12l-2 -6l-3 -6l-5 -10l-12 -19q-2 -2 -3.5 -4.5t-3.5 -5.5q-2 -4 -4.5 -7.5t-5.5 -7.5q-4 -6 -7 -9
q-2 -2 -3.5 -5t-3.5 -5l-9 -11l-7 -9l-12 -13q-3 -4 -6.5 -7t-7.5 -7q-17 -17 -27 -22q-2 -2 -3.5 -2.5t-3.5 -1.5q-8 -3 -13 -2q-8 0 -14 6l-7 6q-9 6 -17 14l-10 8q-14 12 -29 24.5t-30 23.5l-7 6q-10 8 -20 14.5t-21 13.5q-6 5 -6 9.5t5 12.5l153 233l3 4l3 3q4 4 12 2
q1 -1 2 -1l3 -2l4 -2l16 -9l8 -5l12 -8t12 -9l4 -3l22 -18l17 -18l6 -7q9 -11 18 -28q2 -3 3.5 -6t2.5 -6l3 -9l3 -10z" />
    <glyph glyph-name="Chazh" unicode="&#xfb7c;&#xfb8b;" horiz-adv-x="1152" 
d="M920 820q-22 -39 -46 -78.5t-53.5 -74.5t-65 -63.5t-80.5 -45.5q-37 -15 -63 -33.5t-43 -39.5q-26 -28 -45 -77.5t-39.5 -104.5t-45 -107.5t-61.5 -86.5q-51 -54 -151 -73l-183 -31q-8 -1 -19.5 -1.5t-16.5 0.5q-23 7 -14 30.5t47 47.5q77 51 123 82.5t75 51.5t46.5 33
t37.5 29q81 61 112 128q18 35 33 68t31.5 65t35.5 63.5t44 63.5q26 32 70 62.5t106 60.5q7 3 23 13.5t39 33.5t52.5 62.5t62.5 100.5q-12 12 -69 33q-57 22 -108 25q-47 3 -77.5 -17t-55.5 -57t-43 -34q-6 3 -2 25q5 22 14 43q38 87 86 129q49 43 117 43q49 0 123 -24
q46 -16 79 -16q69 0 137 49q15 0 10.5 -19.5t-13.5 -45.5q-8 -26 -11 -35q-15 -47 -24 -55q-9 -7 -52 -38q-24 -18 -41.5 -41.5t-35.5 -55.5t-46 -88zM763 1697q8 -28 -0.5 -58t-29.5 -62q-17 -26 -34.5 -48.5t-38.5 -42.5q-13 -14 -23 -20t-17 -7.5t-12 0.5t-9 5
q-35 28 -68.5 56.5t-73.5 53.5q-5 7 -5 10.5t5 11.5l152 234q7 9 13.5 8.5t14.5 -5.5q20 -12 40.5 -25.5t37.5 -30.5t30 -36.5t18 -43.5zM625 2058q8 -28 -0.5 -58t-29.5 -62q-17 -26 -34.5 -48.5t-38.5 -42.5q-13 -14 -23 -20t-17 -7.5t-12 0.5t-9 5q-35 28 -68.5 56.5
t-73.5 53.5q-5 7 -5 10.5t5 11.5l152 234q7 9 13.5 8.5t14.5 -5.5q20 -12 40.5 -25.5t37.5 -30.5t30 -36.5t18 -43.5zM447 1705q2 -5 3.5 -9t3.5 -9l3 -9q0 -4 1 -6q0 -2 0.5 -4t0.5 -4t0.5 -3t0.5 -3q0 -19 -4 -35q0 -2 -0.5 -3t-0.5 -3l-4 -12l-3 -6q-1 -2 -1.5 -5
t-2.5 -5l-6 -12l-12 -19l-17 -25q-5 -8 -11 -15.5t-12 -15.5l-16 -18t-17 -17l-10 -10l-5 -4q-12 -10 -20.5 -13t-14.5 -1q-4 1 -6.5 2.5t-4.5 3.5l-24 19l-10 9l-59 48l-7 5q-21 16 -41 29q-6 5 -6 9.5t5 12.5l153 233q7 11 16 9l2 -1q1 0 5 -2q2 -2 4 -2q13 -8 26 -16.5
t26 -17.5l11 -9q11 -9 20 -18t17 -20l6 -8l9 -16zM1094 -97q8 -28 -0.5 -58t-29.5 -62q-17 -26 -34.5 -48.5t-38.5 -42.5q-13 -14 -23 -20t-17 -7.5t-12 0.5t-9 5q-35 28 -68.5 56.5t-73.5 53.5q-5 7 -5 10.5t5 11.5l152 234q7 9 13.5 8.5t14.5 -5.5q20 -12 40.5 -25.5
t37.5 -30.5t30 -36.5t18 -43.5zM921 -485q8 -28 -0.5 -58t-29.5 -62q-17 -26 -34.5 -48.5t-38.5 -42.5q-13 -14 -23 -20t-17 -7.5t-12 0.5t-9 5q-35 28 -68.5 56.5t-73.5 53.5q-5 7 -5 10.5t5 11.5l152 234q7 9 13.5 8.5t14.5 -5.5q20 -12 40.5 -25.5t37.5 -30.5t30 -36.5
t18 -43.5zM790 -130q0 -2 0.5 -2.5t0.5 -2.5v-15l-2 -15l-2 -6q-2 -6 -3.5 -12t-4.5 -12l-2 -6l-3 -6l-5 -10l-12 -19q-2 -2 -3.5 -4.5t-3.5 -5.5q-2 -4 -4.5 -7.5t-5.5 -7.5q-4 -6 -7 -9q-2 -2 -3.5 -5t-3.5 -5l-9 -11l-7 -9l-12 -13q-3 -4 -6.5 -7t-7.5 -7
q-17 -17 -27 -22q-2 -2 -3.5 -2.5t-3.5 -1.5q-8 -3 -13 -2q-8 0 -14 6l-7 6q-9 6 -17 14l-10 8q-14 12 -29 24.5t-30 23.5l-7 6q-10 8 -20 14.5t-21 13.5q-6 5 -6 9.5t5 12.5l153 233l3 4l3 3q4 4 12 2q1 -1 2 -1l3 -2l4 -2l16 -9l8 -5l12 -8t12 -9l4 -3l22 -18l17 -18l6 -7
q9 -11 18 -28q2 -3 3.5 -6t2.5 -6l3 -9l3 -10z" />
    <glyph glyph-name="Far" unicode="&#xfed3;&#xfeae;" horiz-adv-x="943" 
d="M687 540q94 38 94 80q-3 17 -24 50q-23 33 -41 33q-14 -7 -34.5 -12t-44.5 -5q-36 0 -65 26q-28 24 -32 67q-3 15 18 70.5t78.5 150t88.5 94.5q84 0 141 -75q59 -75 59 -201q0 -97 -34.5 -188t-77.5 -157.5t-92 -102.5q-37 -28 -120.5 -59t-102.5 -38
q-82 -42 -178.5 -148.5t-170.5 -196.5q-165 -181 -274 -250.5t-152.5 -91.5t-82.5 -44q-33 -18 -49 -9q-8 8 7 19q9 6 128 94q123 97 147 123q69 64 98 100q31 27 84 93q37 45 127.5 164t142.5 177.5t112.5 106.5t116 75t133.5 55zM815 1738q8 -29 -0.5 -60t-31.5 -65
q-14 -23 -29.5 -41.5t-32.5 -35.5q-5 -6 -16 -15t-23 -17t-23 -11.5t-16 2.5q-36 29 -71 59t-77 56q-7 5 -6.5 9.5t5.5 13.5l160 244q7 10 14 9.5t15 -5.5q21 -12 42 -27t39 -32.5t31.5 -38t19.5 -45.5z" />
    <glyph glyph-name="Faz" unicode="&#xfed3;&#xfeb0;" horiz-adv-x="943" 
d="M687 540q94 38 94 80q-3 17 -24 50q-23 33 -41 33q-14 -7 -34.5 -12t-44.5 -5q-36 0 -65 26q-28 24 -32 67q-3 15 18 70.5t78.5 150t88.5 94.5q84 0 141 -75q59 -75 59 -201q0 -97 -34.5 -188t-77.5 -157.5t-92 -102.5q-37 -28 -120.5 -59t-102.5 -38
q-82 -42 -178.5 -148.5t-170.5 -196.5q-165 -181 -274 -250.5t-152.5 -91.5t-82.5 -44q-33 -18 -49 -9q-8 8 7 19q9 6 128 94q123 97 147 123q69 64 98 100q31 27 84 93q37 45 127.5 164t142.5 177.5t112.5 106.5t116 75t133.5 55zM815 1738q8 -29 -0.5 -60t-31.5 -65
q-14 -23 -29.5 -41.5t-32.5 -35.5q-5 -6 -16 -15t-23 -17t-23 -11.5t-16 2.5q-36 29 -71 59t-77 56q-7 5 -6.5 9.5t5.5 13.5l160 244q7 10 14 9.5t15 -5.5q21 -12 42 -27t39 -32.5t31.5 -38t19.5 -45.5zM355 1238q8 -29 -0.5 -60t-31.5 -65q-14 -23 -29.5 -41.5t-32.5 -35.5
q-5 -6 -16 -15t-23 -17t-23 -11.5t-16 2.5q-36 29 -71 59t-77 56q-7 5 -6.5 9.5t5.5 13.5l160 244q7 10 14 9.5t15 -5.5q21 -12 42 -27t39 -32.5t31.5 -38t19.5 -45.5z" />
    <glyph glyph-name="Fazh" unicode="&#xfed3;&#xfb8b;" horiz-adv-x="1201" 
d="M945 540q94 38 94 80q-3 17 -24 50q-23 33 -41 33q-14 -7 -34.5 -12t-44.5 -5q-36 0 -65 26q-28 24 -32 67q-3 15 18 70.5t78.5 150t88.5 94.5q84 0 141 -75q59 -75 59 -201q0 -97 -34.5 -188t-77.5 -157.5t-92 -102.5q-37 -28 -120.5 -59t-102.5 -38
q-82 -42 -178.5 -148.5t-170.5 -196.5q-165 -181 -274 -250.5t-152.5 -91.5t-82.5 -44q-33 -18 -49 -9q-8 8 7 19q9 6 128 94q123 97 147 123q69 64 98 100q31 27 84 93q37 45 127.5 164t142.5 177.5t112.5 106.5t116 75t133.5 55zM1066 1867q8 -29 -0.5 -60t-31.5 -65
q-14 -23 -29.5 -41.5t-32.5 -35.5q-5 -6 -16 -15t-23 -17t-23 -11.5t-16 2.5q-36 29 -71 59t-77 56q-7 5 -6.5 9.5t5.5 13.5l160 244q7 10 14 9.5t15 -5.5q21 -12 42 -27t39 -32.5t31.5 -38t19.5 -45.5zM711 1102q8 -28 -0.5 -58t-29.5 -62q-17 -26 -34.5 -48.5t-38.5 -42.5
q-13 -14 -23 -20t-17 -7.5t-12 0.5t-9 5q-35 28 -68.5 56.5t-73.5 53.5q-5 7 -5 10.5t5 11.5l152 234q7 9 13.5 8.5t14.5 -5.5q20 -12 40.5 -25.5t37.5 -30.5t30 -36.5t18 -43.5zM573 1463q8 -28 -0.5 -58t-29.5 -62q-17 -26 -34.5 -48.5t-38.5 -42.5q-13 -14 -23 -20
t-17 -7.5t-12 0.5t-9 5q-35 28 -68.5 56.5t-73.5 53.5q-5 7 -5 10.5t5 11.5l152 234q7 9 13.5 8.5t14.5 -5.5q20 -12 40.5 -25.5t37.5 -30.5t30 -36.5t18 -43.5zM395 1110q2 -5 3.5 -9t3.5 -9l3 -9q0 -4 1 -6q0 -2 0.5 -4t0.5 -4t0.5 -3t0.5 -3q0 -19 -4 -35q0 -2 -0.5 -3
t-0.5 -3l-4 -12l-3 -6q-1 -2 -1.5 -5t-2.5 -5l-6 -12l-12 -19l-17 -25q-5 -8 -11 -15.5t-12 -15.5l-16 -18t-17 -17l-10 -10l-5 -4q-12 -10 -20.5 -13t-14.5 -1q-4 1 -6.5 2.5t-4.5 3.5l-24 19l-10 9l-59 48l-7 5q-21 16 -41 29q-6 5 -6 9.5t5 12.5l153 233q7 11 16 9l2 -1
q1 0 5 -2q2 -2 4 -2q13 -8 26 -16.5t26 -17.5l11 -9q11 -9 20 -18t17 -20l6 -8l9 -16z" />
    <glyph glyph-name="Ghar" unicode="&#xfed7;&#xfeae;" horiz-adv-x="943" 
d="M687 540q94 38 94 80q-3 17 -24 50q-23 33 -41 33q-14 -7 -34.5 -12t-44.5 -5q-36 0 -65 26q-28 24 -32 67q-3 15 18 70.5t78.5 150t88.5 94.5q84 0 141 -75q59 -75 59 -201q0 -97 -34.5 -188t-77.5 -157.5t-92 -102.5q-37 -28 -120.5 -59t-102.5 -38
q-82 -42 -178.5 -148.5t-170.5 -196.5q-165 -181 -274 -250.5t-152.5 -91.5t-82.5 -44q-33 -18 -49 -9q-8 8 7 19q9 6 128 94q123 97 147 123q69 64 98 100q31 27 84 93q37 45 127.5 164t142.5 177.5t112.5 106.5t116 75t133.5 55zM1036 1813q8 -28 -1 -58.5t-32 -62.5
q-17 -26 -36 -49t-42 -43q-14 -14 -24.5 -20t-18.5 -7.5t-13.5 0.5t-9.5 5q-38 28 -74 57t-80 54q-5 7 -5 10.5t5 11.5l165 236q7 9 14.5 8.5t15.5 -5.5q22 -12 43.5 -26t40.5 -30.5t32.5 -36.5t19.5 -44zM705 1794q0 -4 1 -6q0 -3 2 -5q0 -2 0.5 -4.5t0.5 -4.5v-15
q0 -2 -0.5 -4.5t-0.5 -4.5l-4 -12q0 -2 -0.5 -3t-0.5 -3l-4 -12q-2 -4 -3.5 -8t-4.5 -8q0 -1 -0.5 -1.5t-0.5 -1.5l-5 -9q-2 -5 -5.5 -8.5t-5.5 -7.5q-2 -2 -2 -3l-13 -18l-5 -7q-2 -2 -4 -5t-4 -5t-3.5 -5t-4.5 -5l-17 -20q-2 -2 -2 -3q-2 -2 -4.5 -5t-6.5 -5l-6 -6
q-2 -4 -9 -8l-11 -10l-5 -4q-13 -10 -21 -12l-6 -2h-8q-9 0 -15 6q-23 17 -45.5 35t-47.5 35q-6 7 -15 12q-23 16 -44 29q-1 0 -1 1q-6 5 -6 9t6 12l165 235q0 1 1 2q8 8 16 7q0 -1 1 -1h2q1 0 2 -1l7 -3q2 -2 4.5 -2.5t4.5 -2.5q2 -1 4.5 -2t4.5 -3q4 -2 8 -5q7 -5 13 -8.5
t13 -8.5l4 -3q10 -7 19 -14t17 -15l13 -14l10 -12l6 -10l6 -10q2 -3 4 -9l3 -9q1 -1 1 -2t1 -3q0 -3 1 -4z" />
    <glyph glyph-name="Ghaz" unicode="&#xfed7;&#xfeb0;" horiz-adv-x="943" 
d="M687 540q94 38 94 80q-3 17 -24 50q-23 33 -41 33q-14 -7 -34.5 -12t-44.5 -5q-36 0 -65 26q-28 24 -32 67q-3 15 18 70.5t78.5 150t88.5 94.5q84 0 141 -75q59 -75 59 -201q0 -97 -34.5 -188t-77.5 -157.5t-92 -102.5q-37 -28 -120.5 -59t-102.5 -38
q-82 -42 -178.5 -148.5t-170.5 -196.5q-165 -181 -274 -250.5t-152.5 -91.5t-82.5 -44q-33 -18 -49 -9q-8 8 7 19q9 6 128 94q123 97 147 123q69 64 98 100q31 27 84 93q37 45 127.5 164t142.5 177.5t112.5 106.5t116 75t133.5 55zM315 1279q8 -29 -0.5 -60t-31.5 -65
q-14 -23 -29.5 -41.5t-32.5 -35.5q-5 -6 -16 -15t-23 -17t-23 -11.5t-16 2.5q-36 29 -71 59t-77 56q-7 5 -6.5 9.5t5.5 13.5l160 244q7 10 14 9.5t15 -5.5q21 -12 42 -27t39 -32.5t31.5 -38t19.5 -45.5zM1036 1813q8 -28 -1 -58.5t-32 -62.5q-17 -26 -36 -49t-42 -43
q-14 -14 -24.5 -20t-18.5 -7.5t-13.5 0.5t-9.5 5q-38 28 -74 57t-80 54q-5 7 -5 10.5t5 11.5l165 236q7 9 14.5 8.5t15.5 -5.5q22 -12 43.5 -26t40.5 -30.5t32.5 -36.5t19.5 -44zM705 1794q0 -4 1 -6q0 -3 2 -5q0 -2 0.5 -4.5t0.5 -4.5v-15q0 -2 -0.5 -4.5t-0.5 -4.5l-4 -12
q0 -2 -0.5 -3t-0.5 -3l-4 -12q-2 -4 -3.5 -8t-4.5 -8q0 -1 -0.5 -1.5t-0.5 -1.5l-5 -9q-2 -5 -5.5 -8.5t-5.5 -7.5q-2 -2 -2 -3l-13 -18l-5 -7q-2 -2 -4 -5t-4 -5t-3.5 -5t-4.5 -5l-17 -20q-2 -2 -2 -3q-2 -2 -4.5 -5t-6.5 -5l-6 -6q-2 -4 -9 -8l-11 -10l-5 -4
q-13 -10 -21 -12l-6 -2h-8q-9 0 -15 6q-23 17 -45.5 35t-47.5 35q-6 7 -15 12q-23 16 -44 29q-1 0 -1 1q-6 5 -6 9t6 12l165 235q0 1 1 2q8 8 16 7q0 -1 1 -1h2q1 0 2 -1l7 -3q2 -2 4.5 -2.5t4.5 -2.5q2 -1 4.5 -2t4.5 -3q4 -2 8 -5q7 -5 13 -8.5t13 -8.5l4 -3q10 -7 19 -14
t17 -15l13 -14l10 -12l6 -10l6 -10q2 -3 4 -9l3 -9q1 -1 1 -2t1 -3q0 -3 1 -4z" />
    <glyph glyph-name="Ghazh" unicode="&#xfed7;&#xfb8b;" horiz-adv-x="943" 
d="M687 540q94 38 94 80q-3 17 -24 50q-23 33 -41 33q-14 -7 -34.5 -12t-44.5 -5q-36 0 -65 26q-28 24 -32 67q-3 15 18 70.5t78.5 150t88.5 94.5q84 0 141 -75q59 -75 59 -201q0 -97 -34.5 -188t-77.5 -157.5t-92 -102.5q-37 -28 -120.5 -59t-102.5 -38
q-82 -42 -178.5 -148.5t-170.5 -196.5q-165 -181 -274 -250.5t-152.5 -91.5t-82.5 -44q-33 -18 -49 -9q-8 8 7 19q9 6 128 94q123 97 147 123q69 64 98 100q31 27 84 93q37 45 127.5 164t142.5 177.5t112.5 106.5t116 75t133.5 55zM928 1916q8 -28 -1 -58.5t-32 -62.5
q-17 -26 -36 -49t-42 -43q-14 -14 -24.5 -20t-18.5 -7.5t-13.5 0.5t-9.5 5q-38 28 -74 57t-80 54q-5 7 -5 10.5t5 11.5l165 236q7 9 14.5 8.5t15.5 -5.5q22 -12 43.5 -26t40.5 -30.5t32.5 -36.5t19.5 -44zM597 1897q0 -4 1 -6q0 -3 2 -5q0 -2 0.5 -4.5t0.5 -4.5v-15
q0 -2 -0.5 -4.5t-0.5 -4.5l-4 -12q0 -2 -0.5 -3t-0.5 -3l-4 -12q-2 -4 -3.5 -8t-4.5 -8q0 -1 -0.5 -1.5t-0.5 -1.5l-5 -9q-2 -5 -5.5 -8.5t-5.5 -7.5q-2 -2 -2 -3l-13 -18l-5 -7q-2 -2 -4 -5t-4 -5t-3.5 -5t-4.5 -5l-17 -20q-2 -2 -2 -3q-2 -2 -4.5 -5t-6.5 -5l-6 -6
q-2 -4 -9 -8l-11 -10l-5 -4q-13 -10 -21 -12l-6 -2h-8q-9 0 -15 6q-23 17 -45.5 35t-47.5 35q-6 7 -15 12q-23 16 -44 29q-1 0 -1 1q-6 5 -6 9t6 12l165 235q0 1 1 2q8 8 16 7q0 -1 1 -1h2q1 0 2 -1l7 -3q2 -2 4.5 -2.5t4.5 -2.5q2 -1 4.5 -2t4.5 -3q4 -2 8 -5q7 -5 13 -8.5
t13 -8.5l4 -3q10 -7 19 -14t17 -15l13 -14l10 -12l6 -10l6 -10q2 -3 4 -9l3 -9q1 -1 1 -2t1 -3q0 -3 1 -4zM332 1168q8 -28 -0.5 -58t-29.5 -62q-17 -26 -34.5 -48.5t-38.5 -42.5q-13 -14 -23 -20t-17 -7.5t-12 0.5t-9 5q-35 28 -68.5 56.5t-73.5 53.5q-5 7 -5 10.5t5 11.5
l152 234q7 9 13.5 8.5t14.5 -5.5q20 -12 40.5 -25.5t37.5 -30.5t30 -36.5t18 -43.5zM194 1529q8 -28 -0.5 -58t-29.5 -62q-17 -26 -34.5 -48.5t-38.5 -42.5q-13 -14 -23 -20t-17 -7.5t-12 0.5t-9 5q-35 28 -68.5 56.5t-73.5 53.5q-5 7 -5 10.5t5 11.5l152 234q7 9 13.5 8.5
t14.5 -5.5q20 -12 40.5 -25.5t37.5 -30.5t30 -36.5t18 -43.5zM16 1176q2 -5 3.5 -9t3.5 -9l3 -9q0 -4 1 -6q0 -2 0.5 -4t0.5 -4t0.5 -3t0.5 -3q0 -19 -4 -35q0 -2 -0.5 -3t-0.5 -3l-4 -12l-3 -6q-1 -2 -1.5 -5t-2.5 -5l-6 -12l-12 -19l-17 -25q-5 -8 -11 -15.5t-12 -15.5
l-16 -18t-17 -17l-10 -10l-5 -4q-12 -10 -20.5 -13t-14.5 -1q-4 1 -6.5 2.5t-4.5 3.5l-24 19l-10 9l-59 48l-7 5q-21 16 -41 29q-6 5 -6 9.5t5 12.5l153 233q7 11 16 9l2 -1q1 0 5 -2q2 -2 4 -2q13 -8 26 -16.5t26 -17.5l11 -9q11 -9 20 -18t17 -20l6 -8l9 -16z" />
    <glyph glyph-name="Sar" unicode="&#xfebb;&#xfeae;" horiz-adv-x="1463" 
d="M544 557q103 137 203.5 211t199.5 106q17 21 39.5 58.5t50.5 80.5t60.5 87.5t69.5 80t78 57.5t85 21q48 -2 73 -20.5t34 -46.5t6 -61.5t-12 -65.5q-14 -36 -33 -73t-44 -75q-36 -53 -82.5 -113.5t-101.5 -112t-116.5 -86t-125.5 -35.5q-83 -13 -166.5 -51t-167 -117.5
t-176 -204t-176 -208t-196.5 -154t-188.5 -104.5t-96.5 -41q-35 -14 -42 -4q-5 4 18 18q30 20 118 76.5t157 113t154.5 152.5t214.5 280t163 231zM999 868q43 -2 89.5 6.5t93 31t91 59.5t82.5 91q-16 22 -40 33t-54 13q-60 3 -103 -30q-48 -45 -84.5 -98t-74.5 -106z" />
    <glyph glyph-name="Saz" unicode="&#xfebb;&#xfeb0;" horiz-adv-x="1505" 
d="M586 557q103 137 203.5 211t199.5 106q17 21 39.5 58.5t50.5 80.5t60.5 87.5t69.5 80t78 57.5t85 21q48 -2 73 -20.5t34 -46.5t6 -61.5t-12 -65.5q-14 -36 -33 -73t-44 -75q-36 -53 -82.5 -113.5t-101.5 -112t-116.5 -86t-125.5 -35.5q-83 -13 -166.5 -51t-167 -117.5
t-176 -204t-176 -208t-196.5 -154t-188.5 -104.5t-96.5 -41q-35 -14 -42 -4q-5 4 18 18q30 20 118 76.5t157 113t154.5 152.5t214.5 280t163 231zM1041 868q43 -2 89.5 6.5t93 31t91 59.5t82.5 91q-16 22 -40 33t-54 13q-60 3 -103 -30q-48 -45 -84.5 -98t-74.5 -106z
M872 1592q8 -29 -0.5 -60t-31.5 -65q-14 -23 -29.5 -41.5t-32.5 -35.5q-5 -6 -16 -15t-23 -17t-23 -11.5t-16 2.5q-36 29 -71 59t-77 56q-7 5 -6.5 9.5t5.5 13.5l160 244q7 10 14 9.5t15 -5.5q21 -12 42 -27t39 -32.5t31.5 -38t19.5 -45.5z" />
    <glyph glyph-name="Sazh" unicode="&#xfebb;&#xfb8b;" horiz-adv-x="1390" 
d="M471 557q103 137 203.5 211t199.5 106q17 21 39.5 58.5t50.5 80.5t60.5 87.5t69.5 80t78 57.5t85 21q48 -2 73 -20.5t34 -46.5t6 -61.5t-12 -65.5q-14 -36 -33 -73t-44 -75q-36 -53 -82.5 -113.5t-101.5 -112t-116.5 -86t-125.5 -35.5q-83 -13 -166.5 -51t-167 -117.5
t-176 -204t-176 -208t-196.5 -154t-188.5 -104.5t-96.5 -41q-35 -14 -42 -4q-5 4 18 18q30 20 118 76.5t157 113t154.5 152.5t214.5 280t163 231zM926 868q43 -2 89.5 6.5t93 31t91 59.5t82.5 91q-16 22 -40 33t-54 13q-60 3 -103 -30q-48 -45 -84.5 -98t-74.5 -106z
M758 1283q8 -28 -0.5 -58t-29.5 -62q-17 -26 -34.5 -48.5t-38.5 -42.5q-13 -14 -23 -20t-17 -7.5t-12 0.5t-9 5q-35 28 -68.5 56.5t-73.5 53.5q-5 7 -5 10.5t5 11.5l152 234q7 9 13.5 8.5t14.5 -5.5q20 -12 40.5 -25.5t37.5 -30.5t30 -36.5t18 -43.5zM620 1644
q8 -28 -0.5 -58t-29.5 -62q-17 -26 -34.5 -48.5t-38.5 -42.5q-13 -14 -23 -20t-17 -7.5t-12 0.5t-9 5q-35 28 -68.5 56.5t-73.5 53.5q-5 7 -5 10.5t5 11.5l152 234q7 9 13.5 8.5t14.5 -5.5q20 -12 40.5 -25.5t37.5 -30.5t30 -36.5t18 -43.5zM442 1291q2 -5 3.5 -9t3.5 -9
l3 -9q0 -4 1 -6q0 -2 0.5 -4t0.5 -4t0.5 -3t0.5 -3q0 -19 -4 -35q0 -2 -0.5 -3t-0.5 -3l-4 -12l-3 -6q-1 -2 -1.5 -5t-2.5 -5l-6 -12l-12 -19l-17 -25q-5 -8 -11 -15.5t-12 -15.5l-16 -18t-17 -17l-10 -10l-5 -4q-12 -10 -20.5 -13t-14.5 -1q-4 1 -6.5 2.5t-4.5 3.5l-24 19
l-10 9l-59 48l-7 5q-21 16 -41 29q-6 5 -6 9.5t5 12.5l153 233q7 11 16 9l2 -1q1 0 5 -2q2 -2 4 -2q13 -8 26 -16.5t26 -17.5l11 -9q11 -9 20 -18t17 -20l6 -8l9 -16z" />
    <glyph glyph-name="Zaar" unicode="&#xfebf;&#xfeae;" horiz-adv-x="1390" 
d="M471 557q103 137 203.5 211t199.5 106q17 21 39.5 58.5t50.5 80.5t60.5 87.5t69.5 80t78 57.5t85 21q48 -2 73 -20.5t34 -46.5t6 -61.5t-12 -65.5q-14 -36 -33 -73t-44 -75q-36 -53 -82.5 -113.5t-101.5 -112t-116.5 -86t-125.5 -35.5q-83 -13 -166.5 -51t-167 -117.5
t-176 -204t-176 -208t-196.5 -154t-188.5 -104.5t-96.5 -41q-35 -14 -42 -4q-5 4 18 18q30 20 118 76.5t157 113t154.5 152.5t214.5 280t163 231zM926 868q43 -2 89.5 6.5t93 31t91 59.5t82.5 91q-16 22 -40 33t-54 13q-60 3 -103 -30q-48 -45 -84.5 -98t-74.5 -106z
M1210 1827q8 -29 -0.5 -60t-31.5 -65q-14 -23 -29.5 -41.5t-32.5 -35.5q-5 -6 -16 -15t-23 -17t-23 -11.5t-16 2.5q-36 29 -71 59t-77 56q-7 5 -6.5 9.5t5.5 13.5l160 244q7 10 14 9.5t15 -5.5q21 -12 42 -27t39 -32.5t31.5 -38t19.5 -45.5z" />
    <glyph glyph-name="Zaz" unicode="&#xfebf;&#xfeb0;" horiz-adv-x="1390" 
d="M471 557q103 137 203.5 211t199.5 106q17 21 39.5 58.5t50.5 80.5t60.5 87.5t69.5 80t78 57.5t85 21q48 -2 73 -20.5t34 -46.5t6 -61.5t-12 -65.5q-14 -36 -33 -73t-44 -75q-36 -53 -82.5 -113.5t-101.5 -112t-116.5 -86t-125.5 -35.5q-83 -13 -166.5 -51t-167 -117.5
t-176 -204t-176 -208t-196.5 -154t-188.5 -104.5t-96.5 -41q-35 -14 -42 -4q-5 4 18 18q30 20 118 76.5t157 113t154.5 152.5t214.5 280t163 231zM926 868q43 -2 89.5 6.5t93 31t91 59.5t82.5 91q-16 22 -40 33t-54 13q-60 3 -103 -30q-48 -45 -84.5 -98t-74.5 -106z
M677 1564q8 -29 -0.5 -60t-31.5 -65q-14 -23 -29.5 -41.5t-32.5 -35.5q-5 -6 -16 -15t-23 -17t-23 -11.5t-16 2.5q-36 29 -71 59t-77 56q-7 5 -6.5 9.5t5.5 13.5l160 244q7 10 14 9.5t15 -5.5q21 -12 42 -27t39 -32.5t31.5 -38t19.5 -45.5zM1269 1922q8 -29 -0.5 -60
t-31.5 -65q-14 -23 -29.5 -41.5t-32.5 -35.5q-5 -6 -16 -15t-23 -17t-23 -11.5t-16 2.5q-36 29 -71 59t-77 56q-7 5 -6.5 9.5t5.5 13.5l160 244q7 10 14 9.5t15 -5.5q21 -12 42 -27t39 -32.5t31.5 -38t19.5 -45.5z" />
    <glyph glyph-name="Zazh" unicode="&#xfebf;&#xfb8b;" horiz-adv-x="1390" 
d="M471 557q103 137 203.5 211t199.5 106q17 21 39.5 58.5t50.5 80.5t60.5 87.5t69.5 80t78 57.5t85 21q48 -2 73 -20.5t34 -46.5t6 -61.5t-12 -65.5q-14 -36 -33 -73t-44 -75q-36 -53 -82.5 -113.5t-101.5 -112t-116.5 -86t-125.5 -35.5q-83 -13 -166.5 -51t-167 -117.5
t-176 -204t-176 -208t-196.5 -154t-188.5 -104.5t-96.5 -41q-35 -14 -42 -4q-5 4 18 18q30 20 118 76.5t157 113t154.5 152.5t214.5 280t163 231zM926 868q43 -2 89.5 6.5t93 31t91 59.5t82.5 91q-16 22 -40 33t-54 13q-60 3 -103 -30q-48 -45 -84.5 -98t-74.5 -106z
M720 1445q8 -28 -0.5 -58t-29.5 -62q-17 -26 -34.5 -48.5t-38.5 -42.5q-13 -14 -23 -20t-17 -7.5t-12 0.5t-9 5q-35 28 -68.5 56.5t-73.5 53.5q-5 7 -5 10.5t5 11.5l152 234q7 9 13.5 8.5t14.5 -5.5q20 -12 40.5 -25.5t37.5 -30.5t30 -36.5t18 -43.5zM582 1806
q8 -28 -0.5 -58t-29.5 -62q-17 -26 -34.5 -48.5t-38.5 -42.5q-13 -14 -23 -20t-17 -7.5t-12 0.5t-9 5q-35 28 -68.5 56.5t-73.5 53.5q-5 7 -5 10.5t5 11.5l152 234q7 9 13.5 8.5t14.5 -5.5q20 -12 40.5 -25.5t37.5 -30.5t30 -36.5t18 -43.5zM404 1453q2 -5 3.5 -9t3.5 -9
l3 -9q0 -4 1 -6q0 -2 0.5 -4t0.5 -4t0.5 -3t0.5 -3q0 -19 -4 -35q0 -2 -0.5 -3t-0.5 -3l-4 -12l-3 -6q-1 -2 -1.5 -5t-2.5 -5l-6 -12l-12 -19l-17 -25q-5 -8 -11 -15.5t-12 -15.5l-16 -18t-17 -17l-10 -10l-5 -4q-12 -10 -20.5 -13t-14.5 -1q-4 1 -6.5 2.5t-4.5 3.5l-24 19
l-10 9l-59 48l-7 5q-21 16 -41 29q-6 5 -6 9.5t5 12.5l153 233q7 11 16 9l2 -1q1 0 5 -2q2 -2 4 -2q13 -8 26 -16.5t26 -17.5l11 -9q11 -9 20 -18t17 -20l6 -8l9 -16zM1266 2029q8 -29 -0.5 -60t-31.5 -65q-14 -23 -29.5 -41.5t-32.5 -35.5q-5 -6 -16 -15t-23 -17t-23 -11.5
t-16 2.5q-36 29 -71 59t-77 56q-7 5 -6.5 9.5t5.5 13.5l160 244q7 10 14 9.5t15 -5.5q21 -12 42 -27t39 -32.5t31.5 -38t19.5 -45.5z" />
    <glyph glyph-name="Tar" unicode="&#xfec3;&#xfeae;" horiz-adv-x="1212" 
d="M681 423q-86 -20 -147 -60.5t-89 -88.5q-12 -12 -72 -103.5t-142 -205.5q-108 -137 -279 -249q-42 -27 -92 -53q-69 -34 -87 -42q-46 -25 -52 -6q-9 23 141 132q117 83 187 153q101 94 193 245.5t141 221.5q60 89 123.5 150t234.5 135t187 85q108 51 141 120
q-16 21 -55 39q-39 16 -65 16q-75 0 -151 -87q-18 -22 -35.5 -45.5t-35.5 -45.5q-30 -36 -49.5 -57t-28.5 -29q-16 -13 -33 -1q-12 9 32 70q46 68 73 111q27 30 39 89q18 61 26 135l27 211q9 74 27 126q13 41 51 125q33 66 46 103q26 53 41 71q10 6 12 -12q0 -30 -21 -144
l-47 -258l-63 -279q66 60 93 79q56 36 96 36q53 0 93 -34q39 -38 39 -84q0 -75 -58 -194q-83 -166 -224 -270q-51 -40 -101 -63.5t-116 -41.5z" />
    <glyph glyph-name="Taz" unicode="&#xfec3;&#xfeb0;" horiz-adv-x="1212" 
d="M681 423q-86 -20 -147 -60.5t-89 -88.5q-12 -12 -72 -103.5t-142 -205.5q-108 -137 -279 -249q-42 -27 -92 -53q-69 -34 -87 -42q-46 -25 -52 -6q-9 23 141 132q117 83 187 153q101 94 193 245.5t141 221.5q60 89 123.5 150t234.5 135t187 85q108 51 141 120
q-16 21 -55 39q-39 16 -65 16q-75 0 -151 -87q-18 -22 -35.5 -45.5t-35.5 -45.5q-30 -36 -49.5 -57t-28.5 -29q-16 -13 -33 -1q-12 9 32 70q46 68 73 111q27 30 39 89q18 61 26 135l27 211q9 74 27 126q13 41 51 125q33 66 46 103q26 53 41 71q10 6 12 -12q0 -30 -21 -144
l-47 -258l-63 -279q66 60 93 79q56 36 96 36q53 0 93 -34q39 -38 39 -84q0 -75 -58 -194q-83 -166 -224 -270q-51 -40 -101 -63.5t-116 -41.5zM610 1333q-6 25 -19.5 45.5t-31.5 38t-39 32.5t-42 27q-8 5 -15 5.5t-14 -9.5l-160 -244q-5 -9 -5.5 -13.5t6.5 -9.5
q42 -26 77 -56t71 -59q5 -6 16 -2.5t23 11.5t23 17t16 15q17 17 32.5 35.5t29.5 41.5q23 34 31.5 65t0.5 60z" />
    <glyph glyph-name="Tazh" unicode="&#xfec3;&#xfb8b;" horiz-adv-x="1212" 
d="M681 423q-86 -20 -147 -60.5t-89 -88.5q-12 -12 -72 -103.5t-142 -205.5q-108 -137 -279 -249q-42 -27 -92 -53q-69 -34 -87 -42q-46 -25 -52 -6q-9 23 141 132q117 83 187 153q101 94 193 245.5t141 221.5q60 89 123.5 150t234.5 135t187 85q108 51 141 120
q-16 21 -55 39q-39 16 -65 16q-75 0 -151 -87q-18 -22 -35.5 -45.5t-35.5 -45.5q-30 -36 -49.5 -57t-28.5 -29q-16 -13 -33 -1q-12 9 32 70q46 68 73 111q27 30 39 89q18 61 26 135l27 211q9 74 27 126q13 41 51 125q33 66 46 103q26 53 41 71q10 6 12 -12q0 -30 -21 -144
l-47 -258l-63 -279q66 60 93 79q56 36 96 36q53 0 93 -34q39 -38 39 -84q0 -75 -58 -194q-83 -166 -224 -270q-51 -40 -101 -63.5t-116 -41.5zM622 1386q8 -28 -0.5 -58t-29.5 -62q-17 -26 -34.5 -48.5t-38.5 -42.5q-13 -14 -23 -20t-17 -7.5t-12 0.5t-9 5
q-35 28 -68.5 56.5t-73.5 53.5q-5 7 -5 10.5t5 11.5l152 234q7 9 13.5 8.5t14.5 -5.5q20 -12 40.5 -25.5t37.5 -30.5t30 -36.5t18 -43.5zM484 1747q8 -28 -0.5 -58t-29.5 -62q-17 -26 -34.5 -48.5t-38.5 -42.5q-13 -14 -23 -20t-17 -7.5t-12 0.5t-9 5q-35 28 -68.5 56.5
t-73.5 53.5q-5 7 -5 10.5t5 11.5l152 234q7 9 13.5 8.5t14.5 -5.5q20 -12 40.5 -25.5t37.5 -30.5t30 -36.5t18 -43.5zM306 1394q2 -5 3.5 -9t3.5 -9l3 -9q0 -4 1 -6q0 -2 0.5 -4t0.5 -4t0.5 -3t0.5 -3q0 -19 -4 -35q0 -2 -0.5 -3t-0.5 -3l-4 -12l-3 -6q-1 -2 -1.5 -5
t-2.5 -5l-6 -12l-12 -19l-17 -25q-5 -8 -11 -15.5t-12 -15.5l-16 -18t-17 -17l-10 -10l-5 -4q-12 -10 -20.5 -13t-14.5 -1q-4 1 -6.5 2.5t-4.5 3.5l-24 19l-10 9l-59 48l-7 5q-21 16 -41 29q-6 5 -6 9.5t5 12.5l153 233q7 11 16 9l2 -1q1 0 5 -2q2 -2 4 -2q13 -8 26 -16.5
t26 -17.5l11 -9q11 -9 20 -18t17 -20l6 -8l9 -16z" />
    <glyph glyph-name="Zare" unicode="&#xfec7;&#xfeae;" horiz-adv-x="1212" 
d="M681 423q-86 -20 -147 -60.5t-89 -88.5q-12 -12 -72 -103.5t-142 -205.5q-108 -137 -279 -249q-42 -27 -92 -53q-69 -34 -87 -42q-46 -25 -52 -6q-9 23 141 132q117 83 187 153q101 94 193 245.5t141 221.5q60 89 123.5 150t234.5 135t187 85q108 51 141 120
q-16 21 -55 39q-39 16 -65 16q-75 0 -151 -87q-18 -22 -35.5 -45.5t-35.5 -45.5q-30 -36 -49.5 -57t-28.5 -29q-16 -13 -33 -1q-12 9 32 70q46 68 73 111q27 30 39 89q18 61 26 135l27 211q9 74 27 126q13 41 51 125q33 66 46 103q26 53 41 71q10 6 12 -12q0 -30 -21 -144
l-47 -258l-63 -279q66 60 93 79q56 36 96 36q53 0 93 -34q39 -38 39 -84q0 -75 -58 -194q-83 -166 -224 -270q-51 -40 -101 -63.5t-116 -41.5zM1433 1693q8 -29 -0.5 -60t-31.5 -65q-14 -23 -29.5 -41.5t-32.5 -35.5q-5 -6 -16 -15t-23 -17t-23 -11.5t-16 2.5q-36 29 -71 59
t-77 56q-7 5 -6.5 9.5t5.5 13.5l160 244q7 10 14 9.5t15 -5.5q21 -12 42 -27t39 -32.5t31.5 -38t19.5 -45.5z" />
    <glyph glyph-name="Zaaz" unicode="&#xfec7;&#xfeb0;" horiz-adv-x="1212" 
d="M681 423q-86 -20 -147 -60.5t-89 -88.5q-12 -12 -72 -103.5t-142 -205.5q-108 -137 -279 -249q-42 -27 -92 -53q-69 -34 -87 -42q-46 -25 -52 -6q-9 23 141 132q117 83 187 153q101 94 193 245.5t141 221.5q60 89 123.5 150t234.5 135t187 85q108 51 141 120
q-16 21 -55 39q-39 16 -65 16q-75 0 -151 -87q-18 -22 -35.5 -45.5t-35.5 -45.5q-30 -36 -49.5 -57t-28.5 -29q-16 -13 -33 -1q-12 9 32 70q46 68 73 111q27 30 39 89q18 61 26 135l27 211q9 74 27 126q13 41 51 125q33 66 46 103q26 53 41 71q10 6 12 -12q0 -30 -21 -144
l-47 -258l-63 -279q66 60 93 79q56 36 96 36q53 0 93 -34q39 -38 39 -84q0 -75 -58 -194q-83 -166 -224 -270q-51 -40 -101 -63.5t-116 -41.5zM1433 1693q8 -29 -0.5 -60t-31.5 -65q-14 -23 -29.5 -41.5t-32.5 -35.5q-5 -6 -16 -15t-23 -17t-23 -11.5t-16 2.5q-36 29 -71 59
t-77 56q-7 5 -6.5 9.5t5.5 13.5l160 244q7 10 14 9.5t15 -5.5q21 -12 42 -27t39 -32.5t31.5 -38t19.5 -45.5zM568 1421q8 -29 -0.5 -60t-31.5 -65q-14 -23 -29.5 -41.5t-32.5 -35.5q-5 -6 -16 -15t-23 -17t-23 -11.5t-16 2.5q-36 29 -71 59t-77 56q-7 5 -6.5 9.5t5.5 13.5
l160 244q7 10 14 9.5t15 -5.5q21 -12 42 -27t39 -32.5t31.5 -38t19.5 -45.5z" />
    <glyph glyph-name="Zaazh" unicode="&#xfec7;&#xfb8b;" horiz-adv-x="1212" 
d="M681 423q-86 -20 -147 -60.5t-89 -88.5q-12 -12 -72 -103.5t-142 -205.5q-108 -137 -279 -249q-42 -27 -92 -53q-69 -34 -87 -42q-46 -25 -52 -6q-9 23 141 132q117 83 187 153q101 94 193 245.5t141 221.5q60 89 123.5 150t234.5 135t187 85q108 51 141 120
q-16 21 -55 39q-39 16 -65 16q-75 0 -151 -87q-18 -22 -35.5 -45.5t-35.5 -45.5q-30 -36 -49.5 -57t-28.5 -29q-16 -13 -33 -1q-12 9 32 70q46 68 73 111q27 30 39 89q18 61 26 135l27 211q9 74 27 126q13 41 51 125q33 66 46 103q26 53 41 71q10 6 12 -12q0 -30 -21 -144
l-47 -258l-63 -279q66 60 93 79q56 36 96 36q53 0 93 -34q39 -38 39 -84q0 -75 -58 -194q-83 -166 -224 -270q-51 -40 -101 -63.5t-116 -41.5zM687 1374q8 -28 -0.5 -58t-29.5 -62q-17 -26 -34.5 -48.5t-38.5 -42.5q-13 -14 -23 -20t-17 -7.5t-12 0.5t-9 5
q-35 28 -68.5 56.5t-73.5 53.5q-5 7 -5 10.5t5 11.5l152 234q7 9 13.5 8.5t14.5 -5.5q20 -12 40.5 -25.5t37.5 -30.5t30 -36.5t18 -43.5zM549 1735q8 -28 -0.5 -58t-29.5 -62q-17 -26 -34.5 -48.5t-38.5 -42.5q-13 -14 -23 -20t-17 -7.5t-12 0.5t-9 5q-35 28 -68.5 56.5
t-73.5 53.5q-5 7 -5 10.5t5 11.5l152 234q7 9 13.5 8.5t14.5 -5.5q20 -12 40.5 -25.5t37.5 -30.5t30 -36.5t18 -43.5zM371 1382q2 -5 3.5 -9t3.5 -9l3 -9q0 -4 1 -6q0 -2 0.5 -4t0.5 -4t0.5 -3t0.5 -3q0 -19 -4 -35q0 -2 -0.5 -3t-0.5 -3l-4 -12l-3 -6q-1 -2 -1.5 -5
t-2.5 -5l-6 -12l-12 -19l-17 -25q-5 -8 -11 -15.5t-12 -15.5l-16 -18t-17 -17l-10 -10l-5 -4q-12 -10 -20.5 -13t-14.5 -1q-4 1 -6.5 2.5t-4.5 3.5l-24 19l-10 9l-59 48l-7 5q-21 16 -41 29q-6 5 -6 9.5t5 12.5l153 233q7 11 16 9l2 -1q1 0 5 -2q2 -2 4 -2q13 -8 26 -16.5
t26 -17.5l11 -9q11 -9 20 -18t17 -20l6 -8l9 -16zM1460 1882q8 -29 -0.5 -60t-31.5 -65q-14 -23 -29.5 -41.5t-32.5 -35.5q-5 -6 -16 -15t-23 -17t-23 -11.5t-16 2.5q-36 29 -71 59t-77 56q-7 5 -6.5 9.5t5.5 13.5l160 244q7 10 14 9.5t15 -5.5q21 -12 42 -27t39 -32.5
t31.5 -38t19.5 -45.5z" />
    <glyph glyph-name="Mar" unicode="&#xfee3;&#xfeae;" horiz-adv-x="1025" 
d="M447 276q-14 -14 -74 -105.5t-142 -205.5q-108 -137 -279 -249q-42 -27 -92 -53q-69 -34 -87 -42q-46 -25 -52 -6q-9 23 141 132q117 83 187 153q101 94 193 245.5t141 221.5q58 82 102.5 129.5t88.5 91.5q52 51 91 78q136 234 150 255q9 15 16 21q2 3 66.5 -63.5
t104.5 -135.5q9 -18 9 -33q0 -17 -12 -50q-25 -61 -55 -109q-27 -50 -65 -87q-12 -12 -39 -12h-46q-39 0 -75 -4t-73 -19q-32 -12 -92 -53t-107 -100z" />
    <glyph glyph-name="Maz" unicode="&#xfee3;&#xfeb0;" horiz-adv-x="1025" 
d="M447 276q-14 -14 -74 -105.5t-142 -205.5q-108 -137 -279 -249q-42 -27 -92 -53q-69 -34 -87 -42q-46 -25 -52 -6q-9 23 141 132q117 83 187 153q101 94 193 245.5t141 221.5q58 82 102.5 129.5t88.5 91.5q52 51 91 78q136 234 150 255q9 15 16 21q2 3 66.5 -63.5
t104.5 -135.5q9 -18 9 -33q0 -17 -12 -50q-25 -61 -55 -109q-27 -50 -65 -87q-12 -12 -39 -12h-46q-39 0 -75 -4t-73 -19q-32 -12 -92 -53t-107 -100zM594 1460q8 -29 -0.5 -60t-31.5 -65q-14 -23 -29.5 -41.5t-32.5 -35.5q-5 -6 -16 -15t-23 -17t-23 -11.5t-16 2.5
q-36 29 -71 59t-77 56q-7 5 -6.5 9.5t5.5 13.5l160 244q7 10 14 9.5t15 -5.5q21 -12 42 -27t39 -32.5t31.5 -38t19.5 -45.5z" />
    <glyph glyph-name="Mazh" unicode="&#xfee3;&#xfb8b;" horiz-adv-x="1025" 
d="M447 276q-14 -14 -74 -105.5t-142 -205.5q-108 -137 -279 -249q-42 -27 -92 -53q-69 -34 -87 -42q-46 -25 -52 -6q-9 23 141 132q117 83 187 153q101 94 193 245.5t141 221.5q58 82 102.5 129.5t88.5 91.5q52 51 91 78q136 234 150 255q9 15 16 21q2 3 66.5 -63.5
t104.5 -135.5q9 -18 9 -33q0 -17 -12 -50q-25 -61 -55 -109q-27 -50 -65 -87q-12 -12 -39 -12h-46q-39 0 -75 -4t-73 -19q-32 -12 -92 -53t-107 -100zM709 1423q8 -28 -0.5 -58t-29.5 -62q-17 -26 -34.5 -48.5t-38.5 -42.5q-13 -14 -23 -20t-17 -7.5t-12 0.5t-9 5
q-35 28 -68.5 56.5t-73.5 53.5q-5 7 -5 10.5t5 11.5l152 234q7 9 13.5 8.5t14.5 -5.5q20 -12 40.5 -25.5t37.5 -30.5t30 -36.5t18 -43.5zM571 1784q8 -28 -0.5 -58t-29.5 -62q-17 -26 -34.5 -48.5t-38.5 -42.5q-13 -14 -23 -20t-17 -7.5t-12 0.5t-9 5q-35 28 -68.5 56.5
t-73.5 53.5q-5 7 -5 10.5t5 11.5l152 234q7 9 13.5 8.5t14.5 -5.5q20 -12 40.5 -25.5t37.5 -30.5t30 -36.5t18 -43.5zM393 1431q2 -5 3.5 -9t3.5 -9l3 -9q0 -4 1 -6q0 -2 0.5 -4t0.5 -4t0.5 -3t0.5 -3q0 -19 -4 -35q0 -2 -0.5 -3t-0.5 -3l-4 -12l-3 -6q-1 -2 -1.5 -5
t-2.5 -5l-6 -12l-12 -19l-17 -25q-5 -8 -11 -15.5t-12 -15.5l-16 -18t-17 -17l-10 -10l-5 -4q-12 -10 -20.5 -13t-14.5 -1q-4 1 -6.5 2.5t-4.5 3.5l-24 19l-10 9l-59 48l-7 5q-21 16 -41 29q-6 5 -6 9.5t5 12.5l153 233q7 11 16 9l2 -1q1 0 5 -2q2 -2 4 -2q13 -8 26 -16.5
t26 -17.5l11 -9q11 -9 20 -18t17 -20l6 -8l9 -16z" />
    <glyph glyph-name="Saar" unicode="&#xfeb3;&#xfeae;" horiz-adv-x="1758" 
d="M471 557q52 69 102.5 121t99 89.5t94.5 62.5t88 40q53 18 108.5 26.5t105 12.5t90 6t63.5 8q22 8 54 45.5t66 90.5q15 23 33 46t38.5 43t42 35t44.5 23q24 7 44.5 10t37 4t29 1t19.5 3q12 5 24.5 20.5t24 31.5t20 28t12.5 12q20 -3 13 -32.5t-37 -87.5q-15 -28 -33 -53
t-35.5 -44t-32.5 -30t-24 -11q-48 -5 -91 -20.5t-77 -53.5q-33 -37 -71 -85.5t-88 -116.5q-19 -25 -44.5 -55t-54 -58.5t-58 -51t-57.5 -31.5q-18 0 -41 -2t-47 -4.5t-45.5 -5.5t-35.5 -5q-82 -13 -164 -50q-83 -38 -166.5 -117.5t-176 -204t-176 -208t-196.5 -154
t-188.5 -104.5t-96.5 -41q-35 -14 -42 -4q-5 4 18 18q30 20 118 76.5t157 113t154.5 152.5t214.5 280t163 231z" />
    <glyph glyph-name="Saaz" unicode="&#xfeb3;&#xfeb0;" horiz-adv-x="1758" 
d="M471 557q52 69 102.5 121t99 89.5t94.5 62.5t88 40q53 18 108.5 26.5t105 12.5t90 6t63.5 8q22 8 54 45.5t66 90.5q15 23 33 46t38.5 43t42 35t44.5 23q24 7 44.5 10t37 4t29 1t19.5 3q12 5 24.5 20.5t24 31.5t20 28t12.5 12q20 -3 13 -32.5t-37 -87.5q-15 -28 -33 -53
t-35.5 -44t-32.5 -30t-24 -11q-48 -5 -91 -20.5t-77 -53.5q-33 -37 -71 -85.5t-88 -116.5q-19 -25 -44.5 -55t-54 -58.5t-58 -51t-57.5 -31.5q-18 0 -41 -2t-47 -4.5t-45.5 -5.5t-35.5 -5q-82 -13 -164 -50q-83 -38 -166.5 -117.5t-176 -204t-176 -208t-196.5 -154
t-188.5 -104.5t-96.5 -41q-35 -14 -42 -4q-5 4 18 18q30 20 118 76.5t157 113t154.5 152.5t214.5 280t163 231zM889 1633q8 -29 -0.5 -60t-31.5 -65q-14 -23 -29.5 -41.5t-32.5 -35.5q-5 -6 -16 -15t-23 -17t-23 -11.5t-16 2.5q-36 29 -71 59t-77 56q-7 5 -6.5 9.5t5.5 13.5
l160 244q7 10 14 9.5t15 -5.5q21 -12 42 -27t39 -32.5t31.5 -38t19.5 -45.5z" />
    <glyph glyph-name="Saazh" unicode="&#xfeb3;&#xfb8b;" horiz-adv-x="1758" 
d="M471 557q52 69 102.5 121t99 89.5t94.5 62.5t88 40q53 18 108.5 26.5t105 12.5t90 6t63.5 8q22 8 54 45.5t66 90.5q15 23 33 46t38.5 43t42 35t44.5 23q24 7 44.5 10t37 4t29 1t19.5 3q12 5 24.5 20.5t24 31.5t20 28t12.5 12q20 -3 13 -32.5t-37 -87.5q-15 -28 -33 -53
t-35.5 -44t-32.5 -30t-24 -11q-48 -5 -91 -20.5t-77 -53.5q-33 -37 -71 -85.5t-88 -116.5q-19 -25 -44.5 -55t-54 -58.5t-58 -51t-57.5 -31.5q-18 0 -41 -2t-47 -4.5t-45.5 -5.5t-35.5 -5q-82 -13 -164 -50q-83 -38 -166.5 -117.5t-176 -204t-176 -208t-196.5 -154
t-188.5 -104.5t-96.5 -41q-35 -14 -42 -4q-5 4 18 18q30 20 118 76.5t157 113t154.5 152.5t214.5 280t163 231zM999 1626q8 -28 -0.5 -58t-29.5 -62q-17 -26 -34.5 -48.5t-38.5 -42.5q-13 -14 -23 -20t-17 -7.5t-12 0.5t-9 5q-35 28 -68.5 56.5t-73.5 53.5q-5 7 -5 10.5
t5 11.5l152 234q7 9 13.5 8.5t14.5 -5.5q20 -12 40.5 -25.5t37.5 -30.5t30 -36.5t18 -43.5zM861 1987q8 -28 -0.5 -58t-29.5 -62q-17 -26 -34.5 -48.5t-38.5 -42.5q-13 -14 -23 -20t-17 -7.5t-12 0.5t-9 5q-35 28 -68.5 56.5t-73.5 53.5q-5 7 -5 10.5t5 11.5l152 234
q7 9 13.5 8.5t14.5 -5.5q20 -12 40.5 -25.5t37.5 -30.5t30 -36.5t18 -43.5zM683 1634q2 -5 3.5 -9t3.5 -9l3 -9q0 -4 1 -6q0 -2 0.5 -4t0.5 -4t0.5 -3t0.5 -3q0 -19 -4 -35q0 -2 -0.5 -3t-0.5 -3l-4 -12l-3 -6q-1 -2 -1.5 -5t-2.5 -5l-6 -12l-12 -19l-17 -25
q-5 -8 -11 -15.5t-12 -15.5l-16 -18t-17 -17l-10 -10l-5 -4q-12 -10 -20.5 -13t-14.5 -1q-4 1 -6.5 2.5t-4.5 3.5l-24 19l-10 9l-59 48l-7 5q-21 16 -41 29q-6 5 -6 9.5t5 12.5l153 233q7 11 16 9l2 -1q1 0 5 -2q2 -2 4 -2q13 -8 26 -16.5t26 -17.5l11 -9q11 -9 20 -18
t17 -20l6 -8l9 -16z" />
    <glyph glyph-name="Shar" unicode="&#xfeb7;&#xfeae;" horiz-adv-x="1758" 
d="M471 557q52 69 102.5 121t99 89.5t94.5 62.5t88 40q53 18 108.5 26.5t105 12.5t90 6t63.5 8q22 8 54 45.5t66 90.5q15 23 33 46t38.5 43t42 35t44.5 23q24 7 44.5 10t37 4t29 1t19.5 3q12 5 24.5 20.5t24 31.5t20 28t12.5 12q20 -3 13 -32.5t-37 -87.5q-15 -28 -33 -53
t-35.5 -44t-32.5 -30t-24 -11q-48 -5 -91 -20.5t-77 -53.5q-33 -37 -71 -85.5t-88 -116.5q-19 -25 -44.5 -55t-54 -58.5t-58 -51t-57.5 -31.5q-18 0 -41 -2t-47 -4.5t-45.5 -5.5t-35.5 -5q-82 -13 -164 -50q-83 -38 -166.5 -117.5t-176 -204t-176 -208t-196.5 -154
t-188.5 -104.5t-96.5 -41q-35 -14 -42 -4q-5 4 18 18q30 20 118 76.5t157 113t154.5 152.5t214.5 280t163 231zM1655 1938q8 -28 -0.5 -58t-29.5 -62q-17 -26 -34.5 -48.5t-38.5 -42.5q-13 -14 -23 -20t-17 -7.5t-12 0.5t-9 5q-35 28 -68.5 56.5t-73.5 53.5q-5 7 -5 10.5
t5 11.5l152 234q7 9 13.5 8.5t14.5 -5.5q20 -12 40.5 -25.5t37.5 -30.5t30 -36.5t18 -43.5zM1517 2299q8 -28 -0.5 -58t-29.5 -62q-17 -26 -34.5 -48.5t-38.5 -42.5q-13 -14 -23 -20t-17 -7.5t-12 0.5t-9 5q-35 28 -68.5 56.5t-73.5 53.5q-5 7 -5 10.5t5 11.5l152 234
q7 9 13.5 8.5t14.5 -5.5q20 -12 40.5 -25.5t37.5 -30.5t30 -36.5t18 -43.5zM1339 1946q2 -5 3.5 -9t3.5 -9l3 -9q0 -4 1 -6q0 -2 0.5 -4t0.5 -4t0.5 -3t0.5 -3q0 -19 -4 -35q0 -2 -0.5 -3t-0.5 -3l-4 -12l-3 -6q-1 -2 -1.5 -5t-2.5 -5l-6 -12l-12 -19l-17 -25
q-5 -8 -11 -15.5t-12 -15.5l-16 -18t-17 -17l-10 -10l-5 -4q-12 -10 -20.5 -13t-14.5 -1q-4 1 -6.5 2.5t-4.5 3.5l-24 19l-10 9l-59 48l-7 5q-21 16 -41 29q-6 5 -6 9.5t5 12.5l153 233q7 11 16 9l2 -1q1 0 5 -2q2 -2 4 -2q13 -8 26 -16.5t26 -17.5l11 -9q11 -9 20 -18
t17 -20l6 -8l9 -16z" />
    <glyph glyph-name="Shaz" unicode="&#xfeb7;&#xfeb0;" horiz-adv-x="1758" 
d="M471 557q52 69 102.5 121t99 89.5t94.5 62.5t88 40q53 18 108.5 26.5t105 12.5t90 6t63.5 8q22 8 54 45.5t66 90.5q15 23 33 46t38.5 43t42 35t44.5 23q24 7 44.5 10t37 4t29 1t19.5 3q12 5 24.5 20.5t24 31.5t20 28t12.5 12q20 -3 13 -32.5t-37 -87.5q-15 -28 -33 -53
t-35.5 -44t-32.5 -30t-24 -11q-48 -5 -91 -20.5t-77 -53.5q-33 -37 -71 -85.5t-88 -116.5q-19 -25 -44.5 -55t-54 -58.5t-58 -51t-57.5 -31.5q-18 0 -41 -2t-47 -4.5t-45.5 -5.5t-35.5 -5q-82 -13 -164 -50q-83 -38 -166.5 -117.5t-176 -204t-176 -208t-196.5 -154
t-188.5 -104.5t-96.5 -41q-35 -14 -42 -4q-5 4 18 18q30 20 118 76.5t157 113t154.5 152.5t214.5 280t163 231zM812 1697q8 -29 -0.5 -60t-31.5 -65q-14 -23 -29.5 -41.5t-32.5 -35.5q-5 -6 -16 -15t-23 -17t-23 -11.5t-16 2.5q-36 29 -71 59t-77 56q-7 5 -6.5 9.5t5.5 13.5
l160 244q7 10 14 9.5t15 -5.5q21 -12 42 -27t39 -32.5t31.5 -38t19.5 -45.5zM1672 2002q8 -28 -0.5 -58t-29.5 -62q-17 -26 -34.5 -48.5t-38.5 -42.5q-13 -14 -23 -20t-17 -7.5t-12 0.5t-9 5q-35 28 -68.5 56.5t-73.5 53.5q-5 7 -5 10.5t5 11.5l152 234q7 9 13.5 8.5
t14.5 -5.5q20 -12 40.5 -25.5t37.5 -30.5t30 -36.5t18 -43.5zM1534 2363q8 -28 -0.5 -58t-29.5 -62q-17 -26 -34.5 -48.5t-38.5 -42.5q-13 -14 -23 -20t-17 -7.5t-12 0.5t-9 5q-35 28 -68.5 56.5t-73.5 53.5q-5 7 -5 10.5t5 11.5l152 234q7 9 13.5 8.5t14.5 -5.5
q20 -12 40.5 -25.5t37.5 -30.5t30 -36.5t18 -43.5zM1356 2010q2 -5 3.5 -9t3.5 -9l3 -9q0 -4 1 -6q0 -2 0.5 -4t0.5 -4t0.5 -3t0.5 -3q0 -19 -4 -35q0 -2 -0.5 -3t-0.5 -3l-4 -12l-3 -6q-1 -2 -1.5 -5t-2.5 -5l-6 -12l-12 -19l-17 -25q-5 -8 -11 -15.5t-12 -15.5l-16 -18
t-17 -17l-10 -10l-5 -4q-12 -10 -20.5 -13t-14.5 -1q-4 1 -6.5 2.5t-4.5 3.5l-24 19l-10 9l-59 48l-7 5q-21 16 -41 29q-6 5 -6 9.5t5 12.5l153 233q7 11 16 9l2 -1q1 0 5 -2q2 -2 4 -2q13 -8 26 -16.5t26 -17.5l11 -9q11 -9 20 -18t17 -20l6 -8l9 -16z" />
    <glyph glyph-name="Shazh" unicode="&#xfeb7;&#xfb8b;" horiz-adv-x="1758" 
d="M471 557q52 69 102.5 121t99 89.5t94.5 62.5t88 40q53 18 108.5 26.5t105 12.5t90 6t63.5 8q22 8 54 45.5t66 90.5q15 23 33 46t38.5 43t42 35t44.5 23q24 7 44.5 10t37 4t29 1t19.5 3q12 5 24.5 20.5t24 31.5t20 28t12.5 12q20 -3 13 -32.5t-37 -87.5q-15 -28 -33 -53
t-35.5 -44t-32.5 -30t-24 -11q-48 -5 -91 -20.5t-77 -53.5q-33 -37 -71 -85.5t-88 -116.5q-19 -25 -44.5 -55t-54 -58.5t-58 -51t-57.5 -31.5q-18 0 -41 -2t-47 -4.5t-45.5 -5.5t-35.5 -5q-82 -13 -164 -50q-83 -38 -166.5 -117.5t-176 -204t-176 -208t-196.5 -154
t-188.5 -104.5t-96.5 -41q-35 -14 -42 -4q-5 4 18 18q30 20 118 76.5t157 113t154.5 152.5t214.5 280t163 231zM999 1626q8 -28 -0.5 -58t-29.5 -62q-17 -26 -34.5 -48.5t-38.5 -42.5q-13 -14 -23 -20t-17 -7.5t-12 0.5t-9 5q-35 28 -68.5 56.5t-73.5 53.5q-5 7 -5 10.5
t5 11.5l152 234q7 9 13.5 8.5t14.5 -5.5q20 -12 40.5 -25.5t37.5 -30.5t30 -36.5t18 -43.5zM861 1987q8 -28 -0.5 -58t-29.5 -62q-17 -26 -34.5 -48.5t-38.5 -42.5q-13 -14 -23 -20t-17 -7.5t-12 0.5t-9 5q-35 28 -68.5 56.5t-73.5 53.5q-5 7 -5 10.5t5 11.5l152 234
q7 9 13.5 8.5t14.5 -5.5q20 -12 40.5 -25.5t37.5 -30.5t30 -36.5t18 -43.5zM683 1634q2 -5 3.5 -9t3.5 -9l3 -9q0 -4 1 -6q0 -2 0.5 -4t0.5 -4t0.5 -3t0.5 -3q0 -19 -4 -35q0 -2 -0.5 -3t-0.5 -3l-4 -12l-3 -6q-1 -2 -1.5 -5t-2.5 -5l-6 -12l-12 -19l-17 -25
q-5 -8 -11 -15.5t-12 -15.5l-16 -18t-17 -17l-10 -10l-5 -4q-12 -10 -20.5 -13t-14.5 -1q-4 1 -6.5 2.5t-4.5 3.5l-24 19l-10 9l-59 48l-7 5q-21 16 -41 29q-6 5 -6 9.5t5 12.5l153 233q7 11 16 9l2 -1q1 0 5 -2q2 -2 4 -2q13 -8 26 -16.5t26 -17.5l11 -9q11 -9 20 -18
t17 -20l6 -8l9 -16zM1788 2112q8 -28 -0.5 -58t-29.5 -62q-17 -26 -34.5 -48.5t-38.5 -42.5q-13 -14 -23 -20t-17 -7.5t-12 0.5t-9 5q-35 28 -68.5 56.5t-73.5 53.5q-5 7 -5 10.5t5 11.5l152 234q7 9 13.5 8.5t14.5 -5.5q20 -12 40.5 -25.5t37.5 -30.5t30 -36.5t18 -43.5z
M1650 2473q8 -28 -0.5 -58t-29.5 -62q-17 -26 -34.5 -48.5t-38.5 -42.5q-13 -14 -23 -20t-17 -7.5t-12 0.5t-9 5q-35 28 -68.5 56.5t-73.5 53.5q-5 7 -5 10.5t5 11.5l152 234q7 9 13.5 8.5t14.5 -5.5q20 -12 40.5 -25.5t37.5 -30.5t30 -36.5t18 -43.5zM1472 2120
q2 -5 3.5 -9t3.5 -9l3 -9q0 -4 1 -6q0 -2 0.5 -4t0.5 -4t0.5 -3t0.5 -3q0 -19 -4 -35q0 -2 -0.5 -3t-0.5 -3l-4 -12l-3 -6q-1 -2 -1.5 -5t-2.5 -5l-6 -12l-12 -19l-17 -25q-5 -8 -11 -15.5t-12 -15.5l-16 -18t-17 -17l-10 -10l-5 -4q-12 -10 -20.5 -13t-14.5 -1
q-4 1 -6.5 2.5t-4.5 3.5l-24 19l-10 9l-59 48l-7 5q-21 16 -41 29q-6 5 -6 9.5t5 12.5l153 233q7 11 16 9l2 -1q1 0 5 -2q2 -2 4 -2q13 -8 26 -16.5t26 -17.5l11 -9q11 -9 20 -18t17 -20l6 -8l9 -16z" />
    <glyph glyph-name="Ha" unicode="&#x6be;&#xfe8e;" horiz-adv-x="546" 
d="M360 712q-108 -153 -108 -264q0 -49 17 -81.5t32 -32.5t44 71q15 37 18 37q30 0 58 -49q18 -33 18 -71q0 -102 -64 -202q-74 -120 -170 -120q-61 0 -102.5 57t-41.5 127q0 114 77 267q61 123 175 273q-61 26 -110 82t-49 161q0 77 30 209q23 87 32 117
q36 114 103.5 267.5t89.5 153.5q17 -1 3 -46q-25 -77 -46 -150q-11 -44 -28 -117.5t-22 -154.5q-1 -70 27.5 -120.5t130.5 -59.5h33t15 -19q0 -30 -13.5 -68.5t-63.5 -131.5q-36 -61 -70 -114q-6 -9 -15 -21z" />
    <glyph glyph-name="Fik" unicode="&#xfed3;&#xfbff;&#xfb8f;" horiz-adv-x="2908" 
d="M2583 315q-45 7 -68 0q-78 -26 -160 -170q-89 -144 -198 -144q-111 9 -168 101q-57 91 -59 225q2 76 11 161.5t18 150.5q0 10 -3 12q-6 1 -12 -5q-29 -39 -41 -55q-48 -68 -84 -117q-90 -114 -231 -218q-138 -102 -294 -160q-157 -59 -355 -99q-194 -42 -411 -42h-45
q-123 0 -216 15q-132 24 -179 82q-48 57 -51 173q2 99 14 210t42 97q9 0 13 -60q5 -60 45 -106q84 -92 402 -92q171 0 278 9q501 42 822 243q148 87 235 212q62 88 101 226l42 176q7 31 70 156q18 40 32 67l19 39q4 10 10 15.5t11 5.5t8.5 -6t2.5 -19q-15 -62 -23 -105
q-85 -438 -93 -563q-7 -111 -7 -165q0 -150 73 -217q56 -50 129 -50q102 0 168 90q50 66 86 95q34 28 66 28q60 -21 88.5 -18t49.5 18q22 15 22 53q0 25 -21 54q-21 25 -43 25l-24 -12q-9 -6 -47 -6q-45 0 -88 17q-41 18 -41 57q0 28 15 67q17 44 56 123q25 59 57 107
q28 46 52 46q66 0 129 -64q84 -80 84 -203q0 -60 -15 -121q-15 -71 -46 -134q-47 -88 -99 -151q-53 -60 -92 -60zM2313 1668q75 73 288 252q97 76 417.5 345.5t514.5 463t206 202.5q18 7 11 -23q-30 -52 -74 -133q-39 -69 -87 -129q-54 -69 -106 -128q-75 -81 -178 -176
t-407.5 -344t-504.5 -403t-206 -145q-27 5 48 122q34 52 78 96zM2975 1600q-6 25 -19.5 45.5t-31.5 38t-39 32.5t-42 27q-8 5 -15 5.5t-14 -9.5l-160 -244q-5 -9 -5.5 -13.5t6.5 -9.5q42 -26 77 -56t71 -59q5 -6 16 -2.5t23 11.5t23 17t16 15q17 17 32.5 35.5t29.5 41.5
q23 34 31.5 65t0.5 60zM2597 -588q-5 24 -18 43.5t-30 36.5t-37.5 30.5t-40.5 25.5q-8 5 -14.5 5.5t-13.5 -8.5l-152 -234q-5 -8 -5 -11.5t5 -10.5q40 -25 73.5 -53.5t68.5 -56.5q4 -3 9 -5t12 -0.5t17 7.5t23 20q21 20 38.5 42.5t34.5 48.5q21 32 29.5 62t0.5 58z
M2291 -607q-1 1 -1 4q-1 2 -1 3t-1 2l-3 9q-2 6 -4 9q-4 10 -11 20l-9 12l-12 14q-8 8 -16 15t-17 14l-4 3q-6 5 -12 8.5t-12 7.5q-4 3 -8 5q-2 2 -4 3l-4 2q-2 2 -4 2.5t-4 2.5l-7 3q-1 1 -2 1l-2 1q-8 2 -15 -7q-1 -1 -1 -2l-153 -233q-5 -8 -5 -12t5 -9q0 -1 1 -1
q20 -13 41 -29q7 -5 14 -11q23 -17 43.5 -35t42.5 -35q6 -6 14 -6h7l6 2q8 3 19 12l5 4l10 10q5 3 8 8l6 6q3 2 5.5 5t4.5 5q0 1 2 3l16 20q3 3 7 9q2 2 3.5 5t3.5 5l5 7l12 18q0 1 2 3q2 4 5 7.5t5 8.5l5 9q0 1 0.5 1.5t0.5 1.5q2 4 3.5 8t3.5 8l4 12q0 2 0.5 3t0.5 3l3 12
q0 2 0.5 4.5t0.5 4.5v14q0 2 -0.5 4.5t-0.5 4.5q-1 2 -1 5q-1 2 -1 6z" />
    <glyph glyph-name="Piir" unicode="&#xfb58;&#xfbff;&#xfeae;" horiz-adv-x="1294" 
d="M927 532q-17 -8 -35.5 -10.5t-38 -2t-39 2t-37.5 1.5q-81 0 -146.5 -20.5t-122.5 -59.5t-109 -95.5t-107 -128.5q-11 -15 -50 -71t-107 -153q-93 -130 -212 -232q-41 -35 -100.5 -80t-126 -89.5t-132.5 -83.5t-119 -61q-4 -2 -13 -5.5t-25 -9.5q-10 -3 -21 -4.5t-17 1
t-5.5 9.5t13.5 21q8 11 30 29.5t57 44.5q45 32 90 61.5t90 61.5q60 45 126 106.5t138 142.5q41 42 83.5 96.5t89.5 120.5q52 76 76 114q68 99 110.5 158t60.5 81q59 72 120.5 129t125.5 99q90 64 177.5 95.5t173.5 33.5h114q48 0 68 30l97 144q12 16 18 21q17 18 29 13
q7 -4 6 -27q-6 -27 -15 -48q-15 -28 -28 -55t-38.5 -72t-69.5 -112.5t-98 -123.5q-51 -54 -81 -72zM1146 -304q-5 23 -17.5 41.5t-28.5 34.5t-34.5 28.5t-36.5 23.5q-14 8 -18 9t-11 -10l-142 -216q-6 -9 -5.5 -12.5t5.5 -8.5l71 -54q20 -17 35 -30.5l25 -22.5q3 -3 8 -5
t12 -0.5t16.5 7t21.5 18.5q21 20 37 41.5t32 44.5q41 62 30 111zM852 -321q-5 23 -17.5 41.5t-28.5 34.5t-34.5 28.5t-36.5 23.5q-14 8 -18 9t-11 -10l-142 -216q-6 -9 -5.5 -12.5t5.5 -8.5l71 -54q20 -17 35 -30.5l25 -22.5q3 -3 8 -5t12 -0.5t16.5 7t21.5 18.5
q21 20 37 41.5t32 44.5q41 62 30 111zM981 -641q-5 23 -17.5 41.5t-28.5 34.5t-34.5 28.5t-36.5 23.5q-14 8 -18 9t-11 -10l-142 -216q-6 -9 -5.5 -12.5t5.5 -8.5l71 -54q20 -17 35 -30.5l25 -22.5q3 -3 8 -5t12 -0.5t16.5 7t21.5 18.5q21 20 37 41.5t32 44.5q41 62 30 111z
M390 -725q-5 23 -17.5 41.5t-28.5 34.5t-34.5 28.5t-36.5 23.5q-14 8 -18 9t-11 -10l-142 -216q-6 -9 -5.5 -12.5t5.5 -8.5l71 -54q20 -17 35 -30.5l25 -22.5q3 -3 8 -5t12 -0.5t16.5 7t21.5 18.5q21 20 37 41.5t32 44.5q20 30 27.5 58.5t2.5 52.5zM96 -742
q-5 23 -17.5 41.5t-28.5 34.5t-34.5 28.5t-36.5 23.5q-14 8 -18 9t-11 -10l-142 -216q-6 -9 -5.5 -12.5t5.5 -8.5l71 -54q20 -17 35 -30.5l25 -22.5q3 -3 8 -5t12 -0.5t16.5 7t21.5 18.5q21 20 37 41.5t32 44.5q20 30 27.5 58.5t2.5 52.5z" />
    <glyph glyph-name="Pich" unicode="&#xfb58;&#xfbff;&#xfb7b;" horiz-adv-x="1657" 
d="M924 1053q25 -5 34 -20t-4 -44q-25 -51 -108 -100q-75 -44 -242 -180.5t-276 -324.5q-116 -207 -116 -380q-2 -160 98 -251.5t265 -100.5q201 -11 374 53q122 43 215 111q66 43 118 96.5t99 105.5q39 49 54 44.5t-30 -63.5q-34 -52 -78 -113q-375 -533 -843 -544
q-221 10 -325 129t-104 314q7 266 176 564q117 189 269 335q24 24 83.5 75t94.5 80t64.5 53t34.5 30q27 25 -46 32q-34 4 -72 6t-74.5 2t-69.5 -2t-57 -6q-35 -11 -14 27q15 31 34.5 60.5t76 100.5t185 166t278.5 93q29 0 61.5 -19t58 -23.5t38.5 15.5q18 22 49 78
q18 31 38 31q15 0 9 -30q-8 -30 -38.5 -93t-72.5 -112q-47 -57 -89 -57q-28 0 -69.5 22.5t-83.5 22.5q-193 0 -368 -184q44 7 92.5 10.5t97.5 3.5t95.5 -3t87.5 -10zM992 345q11 -49 -30 -111q-16 -23 -32 -44.5t-37 -41.5q-12 -13 -21.5 -18.5t-16.5 -7t-12 0.5t-8 5
l-25 22.5t-35 30.5l-71 54q-5 5 -5.5 8.5t5.5 12.5l142 216q7 11 11 10t18 -9q18 -11 36.5 -23.5t34.5 -28.5t28.5 -34.5t17.5 -41.5zM698 328q11 -49 -30 -111q-16 -23 -32 -44.5t-37 -41.5q-12 -13 -21.5 -18.5t-16.5 -7t-12 0.5t-8 5l-25 22.5t-35 30.5l-71 54
q-5 5 -5.5 8.5t5.5 12.5l142 216q7 11 11 10t18 -9q18 -11 36.5 -23.5t34.5 -28.5t28.5 -34.5t17.5 -41.5zM827 8q11 -49 -30 -111q-16 -23 -32 -44.5t-37 -41.5q-12 -13 -21.5 -18.5t-16.5 -7t-12 0.5t-8 5l-25 22.5t-35 30.5l-71 54q-5 5 -5.5 8.5t5.5 12.5l142 216
q7 11 11 10t18 -9q18 -11 36.5 -23.5t34.5 -28.5t28.5 -34.5t17.5 -41.5zM1473 -831q11 -49 -30 -111q-16 -23 -32 -44.5t-37 -41.5q-12 -13 -21.5 -18.5t-16.5 -7t-12 0.5t-8 5l-25 22.5t-35 30.5l-71 54q-5 5 -5.5 8.5t5.5 12.5l142 216q7 11 11 10t18 -9
q18 -11 36.5 -23.5t34.5 -28.5t28.5 -34.5t17.5 -41.5zM1179 -848q11 -49 -30 -111q-16 -23 -32 -44.5t-37 -41.5q-12 -13 -21.5 -18.5t-16.5 -7t-12 0.5t-8 5l-25 22.5t-35 30.5l-71 54q-5 5 -5.5 8.5t5.5 12.5l142 216q7 11 11 10t18 -9q18 -11 36.5 -23.5t34.5 -28.5
t28.5 -34.5t17.5 -41.5zM1682 910q11 -49 -30 -111q-16 -23 -32 -44.5t-37 -41.5q-12 -13 -21.5 -18.5t-16.5 -7t-12 0.5t-8 5l-25 22.5t-35 30.5l-71 54q-5 5 -5.5 8.5t5.5 12.5l142 216q7 11 11 10t18 -9q18 -11 36.5 -23.5t34.5 -28.5t28.5 -34.5t17.5 -41.5zM1388 893
q11 -49 -30 -111q-16 -23 -32 -44.5t-37 -41.5q-12 -13 -21.5 -18.5t-16.5 -7t-12 0.5t-8 5l-25 22.5t-35 30.5l-71 54q-5 5 -5.5 8.5t5.5 12.5l142 216q7 11 11 10t18 -9q18 -11 36.5 -23.5t34.5 -28.5t28.5 -34.5t17.5 -41.5zM1517 573q11 -49 -30 -111q-16 -23 -32 -44.5
t-37 -41.5q-12 -13 -21.5 -18.5t-16.5 -7t-12 0.5t-8 5l-25 22.5t-35 30.5l-71 54q-5 5 -5.5 8.5t5.5 12.5l142 216q7 11 11 10t18 -9q18 -11 36.5 -23.5t34.5 -28.5t28.5 -34.5t17.5 -41.5z" />
    <glyph glyph-name="Panj" unicode="&#xfb58;&#xfee8;&#xfe9e;" horiz-adv-x="1439" 
d="M924 1053q25 -5 34 -20t-4 -44q-25 -51 -108 -100q-75 -44 -242 -180.5t-276 -324.5q-116 -207 -116 -380q-2 -160 98 -251.5t265 -100.5q201 -11 374 53q122 43 215 111q66 43 118 96.5t99 105.5q39 49 54 44.5t-30 -63.5q-34 -52 -78 -113q-375 -533 -843 -544
q-221 10 -325 129t-104 314q7 266 176 564q119 191 257 326t211 188t78 59q27 25 -46 32q-34 4 -72 6t-74.5 2t-69.5 -2t-57 -6q-35 -11 -14 27q15 31 34.5 60.5t76 100.5t185 166t278.5 93q29 0 61.5 -19t58 -23.5t38.5 15.5q18 22 49 78q18 31 38 31q15 0 9 -30
q-8 -30 -41.5 -93t-75 -116t-83.5 -53q-28 0 -69.5 22.5t-83.5 22.5q-193 0 -368 -184q44 7 92.5 10.5t97.5 3.5t95.5 -3t87.5 -10zM1367 -894q8 -28 -0.5 -58t-29.5 -62q-17 -26 -34.5 -48.5t-38.5 -42.5q-13 -14 -23 -20t-17 -7.5t-12 0.5t-9 5q-35 28 -68.5 56.5
t-73.5 53.5q-5 7 -5 10.5t5 11.5l152 234q7 9 13.5 8.5t14.5 -5.5q20 -12 40.5 -25.5t37.5 -30.5t30 -36.5t18 -43.5zM1194 -1282q8 -28 -0.5 -58t-29.5 -62q-17 -26 -34.5 -48.5t-38.5 -42.5q-13 -14 -23 -20t-17 -7.5t-12 0.5t-9 5q-35 28 -68.5 56.5t-73.5 53.5
q-5 7 -5 10.5t5 11.5l152 234q7 9 13.5 8.5t14.5 -5.5q20 -12 40.5 -25.5t37.5 -30.5t30 -36.5t18 -43.5zM1063 -927q0 -2 0.5 -2.5t0.5 -2.5v-15l-2 -15l-2 -6q-2 -6 -3.5 -12t-4.5 -12l-2 -6l-3 -6l-5 -10l-12 -19q-2 -2 -3.5 -4.5t-3.5 -5.5q-2 -4 -4.5 -7.5t-5.5 -7.5
q-4 -6 -7 -9q-2 -2 -3.5 -5t-3.5 -5l-9 -11l-7 -9l-12 -13q-3 -4 -6.5 -7t-7.5 -7q-17 -17 -27 -22q-2 -2 -3.5 -2.5t-3.5 -1.5q-8 -3 -13 -2q-8 0 -14 6l-7 6q-9 6 -17 14l-10 8q-14 12 -29 24.5t-30 23.5l-7 6q-10 8 -20 14.5t-21 13.5q-6 5 -6 9.5t5 12.5l153 233l3 4
l3 3q4 4 12 2q1 -1 2 -1l3 -2l4 -2l16 -9l8 -5l12 -8t12 -9l4 -3l22 -18l17 -18l6 -7q9 -11 18 -28q2 -3 3.5 -6t2.5 -6l3 -9l3 -10zM993 2103q8 -29 -0.5 -60t-31.5 -65q-14 -23 -29.5 -41.5t-32.5 -35.5q-5 -6 -16 -15t-23 -17t-23 -11.5t-16 2.5q-36 29 -71 59t-77 56
q-7 5 -6.5 9.5t5.5 13.5l160 244q7 10 14 9.5t15 -5.5q21 -12 42 -27t39 -32.5t31.5 -38t19.5 -45.5zM1031 301q8 -29 -0.5 -60t-31.5 -65q-14 -23 -29.5 -41.5t-32.5 -35.5q-5 -6 -16 -15t-23 -17t-23 -11.5t-16 2.5q-36 29 -71 59t-77 56q-7 5 -6.5 9.5t5.5 13.5l160 244
q7 10 14 9.5t15 -5.5q21 -12 42 -27t39 -32.5t31.5 -38t19.5 -45.5z" />
    <glyph glyph-name="Peya" unicode="&#xfb58;&#xfbff;&#xfe8e;" horiz-adv-x="1043" 
d="M245 588q0 -157 76 -225q60 -50 135 -50q106 0 177 93q51 67 87 91q54 32 135 9q27 -2 50 21q18 16 56 92q15 27 23 27q10 0 10 -11q0 -16 -10 -48.5t-34 -94t-42 -85.5q-63 -87 -119 -78q-52 6 -71 0q-79 -26 -169 -176q-87 -150 -201 -150q-117 0 -177 100
q-60 98 -60 238q1 37 10 122q7 59 24 195.5t32 223t31.5 186.5t32.5 162q16 51 35 103t41 103q15 23 19 -8q-27 -172 -48.5 -358t-29 -266t-7.5 -94q-5 -66 -6 -102v-18v-2zM1138 -297q11 -49 -30 -111q-16 -23 -32 -44.5t-37 -41.5q-12 -13 -21.5 -18.5t-16.5 -7t-12 0.5
t-8 5l-25 22.5t-35 30.5l-71 54q-5 5 -5.5 8.5t5.5 12.5l142 216q7 11 11 10t18 -9q18 -11 36.5 -23.5t34.5 -28.5t28.5 -34.5t17.5 -41.5zM844 -314q11 -49 -30 -111q-16 -23 -32 -44.5t-37 -41.5q-12 -13 -21.5 -18.5t-16.5 -7t-12 0.5t-8 5l-25 22.5t-35 30.5l-71 54
q-5 5 -5.5 8.5t5.5 12.5l142 216q7 11 11 10t18 -9q18 -11 36.5 -23.5t34.5 -28.5t28.5 -34.5t17.5 -41.5zM973 -634q11 -49 -30 -111q-16 -23 -32 -44.5t-37 -41.5q-12 -13 -21.5 -18.5t-16.5 -7t-12 0.5t-8 5l-25 22.5t-35 30.5l-71 54q-5 5 -5.5 8.5t5.5 12.5l142 216
q7 11 11 10t18 -9q18 -11 36.5 -23.5t34.5 -28.5t28.5 -34.5t17.5 -41.5zM485 -695q5 -24 -2.5 -52.5t-27.5 -58.5q-16 -23 -32 -44.5t-37 -41.5q-12 -13 -21.5 -18.5t-16.5 -7t-12 0.5t-8 5l-25 22.5t-35 30.5l-71 54q-5 5 -5.5 8.5t5.5 12.5l142 216q7 11 11 10t18 -9
q18 -11 36.5 -23.5t34.5 -28.5t28.5 -34.5t17.5 -41.5zM191 -712q5 -24 -2.5 -52.5t-27.5 -58.5q-16 -23 -32 -44.5t-37 -41.5q-12 -13 -21.5 -18.5t-16.5 -7t-12 0.5t-8 5l-25 22.5t-35 30.5l-71 54q-5 5 -5.5 8.5t5.5 12.5l142 216q7 11 11 10t18 -9q18 -11 36.5 -23.5
t34.5 -28.5t28.5 -34.5t17.5 -41.5z" />
    <glyph glyph-name="Hich" unicode="&#x6be;&#xfbff;&#xfb7b;" horiz-adv-x="1567" 
d="M537 1081q286 9 342 -4q42 -12 42 -54q0 -59 -74 -113q-36 -22 -150 -101.5t-231 -202.5q-43 -42 -106 -134q-60 -87 -86 -151q-42 -108 -48 -159q-7 -45 -7 -75q0 -230 153 -332q124 -79 328 -79q156 0 285 49q69 27 158 83q105 69 186 156q51 60 114 144q70 108 85 102
q9 -2 -1 -33q-8 -21 -47 -105q-57 -105 -117 -197q-103 -145 -231 -256q-124 -108 -253 -173q-170 -81 -366 -81q-218 0 -335 138q-105 126 -105 326q0 73 11 147q9 81 51 196q63 180 172 342q62 90 144 177q30 35 86.5 83.5t87 72.5t48 37.5t33.5 25.5q30 23 30 30
q9 49 -328 35q62 157 171 261.5t215.5 138.5t186.5 28q24 -3 46.5 -11t49.5 -20q19 -9 31 -9q32 0 54 17q18 15 64 85.5t61 85.5q51 58 106 58q29 0 47 -19q15 -18 21 -18q15 0 31 30q15 31 24 31q17 0 30 -28q14 -27 14 -51q0 -53 -44 -111q-43 -60 -97 -53q-9 0 -41 18
q-31 17 -58 17q-30 0 -71 -50q-45 -66 -67 -96q-82 -106 -222 -57q-102 24 -215 -8t-208 -133zM1645 1117q-19 -30 -87.5 -176t-62.5 -188q0 -9 47 -32q48 -19 48 -82q0 -41 -26 -81q-28 -39 -63 -39q-42 0 -57 37q-16 33 -16 83q0 109 91.5 297.5t125.5 180.5zM1191 488
q-5 24 -18 43.5t-30 36.5t-37.5 30.5t-40.5 25.5q-8 5 -14.5 5.5t-13.5 -8.5l-152 -234q-5 -8 -5 -11.5t5 -10.5q40 -25 73.5 -53.5t68.5 -56.5q4 -3 9 -5t12 -0.5t17 7.5t23 20q21 20 38.5 42.5t34.5 48.5q21 32 29.5 62t0.5 58zM1018 100q-5 24 -18 43.5t-30 36.5
t-37.5 30.5t-40.5 25.5q-8 5 -14.5 5.5t-13.5 -8.5l-152 -234q-5 -8 -5 -11.5t5 -10.5q40 -25 73.5 -53.5t68.5 -56.5q4 -3 9 -5t12 -0.5t17 7.5t23 20q21 20 38.5 42.5t34.5 48.5q21 32 29.5 62t0.5 58zM885 469l-3 10l-3 9q-1 3 -2.5 6t-3.5 6q-9 17 -18 28l-6 7l-17 18
l-22 18l-4 3q-6 5 -12 9l-12 8l-8 5l-16 9l-4 2l-3 2q-1 0 -2 1q-8 2 -12 -2l-3 -3l-3 -4l-153 -233q-5 -8 -5 -12.5t6 -9.5q11 -7 21 -13.5t20 -14.5l7 -6q15 -11 30 -23.5t29 -24.5l10 -8q8 -8 17 -14l7 -6q6 -6 14 -6q5 -1 13 2q2 1 3.5 1.5t3.5 2.5q10 5 27 22
q4 4 7.5 7t6.5 7l12 13l7 9l9 11q2 2 3.5 5t3.5 5q3 3 7 9q3 4 5.5 7.5t4.5 7.5q2 3 3.5 5.5t3.5 4.5l12 19l5 10l3 6l2 6q3 6 4.5 12t3.5 12l2 6l2 15v15q0 2 -0.5 2.5t-0.5 2.5zM1366 -826q-5 24 -18 43.5t-30 36.5t-37.5 30.5t-40.5 25.5q-8 5 -14.5 5.5t-13.5 -8.5
l-152 -234q-5 -8 -5 -11.5t5 -10.5q40 -25 73.5 -53.5t68.5 -56.5q4 -3 9 -5t12 -0.5t17 7.5t23 20q21 20 38.5 42.5t34.5 48.5q21 32 29.5 62t0.5 58zM1060 -845q-1 1 -1 4q-1 2 -1 3t-1 2l-3 9q-2 6 -4 9q-4 10 -11 20l-9 12l-12 14q-8 8 -16 15t-17 14l-4 3q-6 5 -12 8.5
t-12 7.5q-4 3 -8 5q-2 2 -4 3l-4 2q-2 2 -4 2.5t-4 2.5l-7 3q-1 1 -2 1l-2 1q-8 2 -15 -7q-1 -1 -1 -2l-153 -233q-5 -8 -5 -12t5 -9q0 -1 1 -1q20 -13 41 -29q7 -5 14 -11q23 -17 43.5 -35t42.5 -35q6 -6 14 -6h7l6 2q8 3 19 12l5 4l10 10q5 3 8 8l6 6q3 2 5.5 5t4.5 5
q0 1 2 3l16 20q3 3 7 9q2 2 3.5 5t3.5 5l5 7l12 18q0 1 2 3q2 4 5 7.5t5 8.5l5 9q0 1 0.5 1.5t0.5 1.5q2 4 3.5 8t3.5 8l4 12q0 2 0.5 3t0.5 3l3 12q0 2 0.5 4.5t0.5 4.5v14q0 2 -0.5 4.5t-0.5 4.5q-1 2 -1 5q-1 2 -1 6z" />
    <glyph glyph-name="Iiz" unicode="&#xfef3;&#xfbff;&#xfeb0;" horiz-adv-x="1398" 
d="M1104 532q-17 -8 -35.5 -10.5t-38 -2t-39 2t-37.5 1.5q-81 0 -146.5 -20.5t-122.5 -59.5t-109 -95.5t-107 -128.5q-11 -15 -50 -71t-107 -153q-93 -130 -212 -232q-41 -35 -100.5 -80t-126 -89.5t-132.5 -83.5t-119 -61q-4 -2 -13 -5.5t-25 -9.5q-10 -3 -21 -4.5t-17 1
t-5.5 9.5t13.5 21q8 11 30 29.5t57 44.5q45 32 90 61.5t90 61.5q60 45 126 106.5t138 142.5q41 42 83.5 96.5t89.5 120.5q52 76 76 114q68 99 110.5 158t60.5 81q59 72 120.5 129t125.5 99q90 64 177.5 95.5t173.5 33.5h114q48 0 68 30l97 144q12 16 18 21q17 18 29 13
q7 -4 6 -27q-6 -27 -15 -48q-15 -28 -28 -55t-38.5 -72t-69.5 -112.5t-98 -123.5q-51 -54 -81 -72zM768 1610q6 -26 -2.5 -56.5t-29.5 -62.5q-17 -26 -34 -49t-40 -44q-26 -27 -40 -27.5t-22 6.5q-11 10 -27 24.5t-37 32.5q-23 17 -42.5 32t-33.5 26q-5 5 -6 8.5t6 13.5
l152 232q8 11 12 10t19 -9q19 -12 39 -25.5t37 -30t30 -37t19 -44.5zM1294 -422q11 -49 -30 -111q-16 -23 -32 -44.5t-37 -41.5q-12 -13 -21.5 -18.5t-16.5 -7t-12 0.5t-8 5l-25 22.5t-35 30.5l-71 54q-5 5 -5.5 8.5t5.5 12.5l142 216q7 11 11 10t18 -9q18 -11 36.5 -23.5
t34.5 -28.5t28.5 -34.5t17.5 -41.5zM1000 -439q11 -49 -30 -111q-16 -23 -32 -44.5t-37 -41.5q-12 -13 -21.5 -18.5t-16.5 -7t-12 0.5t-8 5l-25 22.5t-35 30.5l-71 54q-5 5 -5.5 8.5t5.5 12.5l142 216q7 11 11 10t18 -9q18 -11 36.5 -23.5t34.5 -28.5t28.5 -34.5t17.5 -41.5
zM527 -664q11 -49 -30 -111q-16 -23 -32 -44.5t-37 -41.5q-12 -13 -21.5 -18.5t-16.5 -7t-12 0.5t-8 5l-25 22.5t-35 30.5l-71 54q-5 5 -5.5 8.5t5.5 12.5l142 216q7 11 11 10t18 -9q18 -11 36.5 -23.5t34.5 -28.5t28.5 -34.5t17.5 -41.5zM233 -681q5 -24 -2.5 -52.5
t-27.5 -58.5q-16 -23 -32 -44.5t-37 -41.5q-12 -13 -21.5 -18.5t-16.5 -7t-12 0.5t-8 5l-25 22.5t-35 30.5l-71 54q-5 5 -5.5 8.5t5.5 12.5l142 216q7 11 11 10t18 -9q18 -11 36.5 -23.5t34.5 -28.5t28.5 -34.5t17.5 -41.5z" />
    <glyph glyph-name="Pichid" unicode="&#xfb58;&#xfbff;&#xfb7d;&#xfbff;&#xfeaa;" horiz-adv-x="2022" 
d="M614 466q0 -76 42 -118q5 -6 32 -23q52 -30 97 -30q87 0 123 20q36 21 86 81q31 40 84 76q52 35 95 28t49 -7q33 0 187 176q9 12 18 21q-6 0 -276 3q-40 4 -27 43q2 11 18 38q14 25 41 63q4 4 10 13l5 6v0v0q13 18 24.5 31.5t20.5 24.5q42 48 85 79q75 59 176 96
q100 42 181 42q23 0 54 -12q12 -4 24 -11t26 -13q31 -8 54 11q10 10 51 78q18 31 36 31q15 0 9 -30q-8 -30 -15 -46q-53 -105 -95 -159q-46 -54 -88 -57h-2q-3 0 -76 27q-45 16 -77 16q-52 0 -130 -22q-78 -20 -146 -68q-16 -9 -69 -66l-0.5 -0.5l-0.5 -0.5l372 21
q30 4 6.5 -56t-36.5 -70q-48 -32 -83 -68q-16 -16 -32.5 -33.5t-33.5 -36.5q-54 -57 -82 -93q-36 -45 -68 -81q-31 -38 -67 -59q-20 -9 -50 -3v3v-3l-46 8q-32 0 -51 -14q-20 -10 -35 -30q-31 -45 -62 -91.5t-61 -92.5q-54 -63 -103 -87q-47 -24 -108 -24q-102 0 -149 67
q-49 68 -63 123q0 5 -3 23q-9 -17 -19 -38q-15 -25 -51 -76q-47 -62 -120 -93l-123 -36l-96 -18q-59 -6 -68 0q0 18 47 48q42 28 84.5 56t87.5 55q116 78 171 147q35 40 66 91q35 57 48 81l62 129q31 59 34 62q23 36 39 30q15 -6 9 -30q-9 -18 -25.5 -64.5t-16.5 -87.5z
M1614 -1083q-5 23 -17.5 41.5t-28.5 34.5t-34.5 28.5t-36.5 23.5q-14 8 -18 9t-11 -10l-142 -216q-6 -9 -5.5 -12.5t5.5 -8.5l71 -54q20 -17 35 -30.5l25 -22.5q3 -3 8 -5t12 -0.5t16.5 7t21.5 18.5q21 20 37 41.5t32 44.5q20 30 27.5 58.5t2.5 52.5zM1320 -1100
q-5 23 -17.5 41.5t-28.5 34.5t-34.5 28.5t-36.5 23.5q-14 8 -18 9t-11 -10l-142 -216q-6 -9 -5.5 -12.5t5.5 -8.5l71 -54q20 -17 35 -30.5l25 -22.5q3 -3 8 -5t12 -0.5t16.5 7t21.5 18.5q21 20 37 41.5t32 44.5q20 30 27.5 58.5t2.5 52.5zM421 -759q-5 23 -17.5 41.5
t-28.5 34.5t-34.5 28.5t-36.5 23.5q-14 8 -18 9t-11 -10l-142 -216q-6 -9 -5.5 -12.5t5.5 -8.5l71 -54q20 -17 35 -30.5l25 -22.5q3 -3 8 -5t12 -0.5t16.5 7t21.5 18.5q21 20 37 41.5t32 44.5q20 30 27.5 58.5t2.5 52.5zM127 -776q-5 23 -17.5 41.5t-28.5 34.5t-34.5 28.5
t-36.5 23.5q-14 8 -18 9t-11 -10l-142 -216q-6 -9 -5.5 -12.5t5.5 -8.5l71 -54q20 -17 35 -30.5l25 -22.5q3 -3 8 -5t12 -0.5t16.5 7t21.5 18.5q21 20 37 41.5t32 44.5q20 30 27.5 58.5t2.5 52.5zM1115 -416q-5 23 -17.5 41.5t-28.5 34.5t-34.5 28.5t-36.5 23.5q-14 8 -18 9
t-11 -10l-142 -216q-6 -9 -5.5 -12.5t5.5 -8.5l71 -54q20 -17 35 -30.5l25 -22.5q3 -3 8 -5t12 -0.5t16.5 7t21.5 18.5q21 20 37 41.5t32 44.5q41 62 30 111zM821 -433q-5 23 -17.5 41.5t-28.5 34.5t-34.5 28.5t-36.5 23.5q-14 8 -18 9t-11 -10l-142 -216q-6 -9 -5.5 -12.5
t5.5 -8.5l71 -54q20 -17 35 -30.5l25 -22.5q3 -3 8 -5t12 -0.5t16.5 7t21.5 18.5q21 20 37 41.5t32 44.5q41 62 30 111zM950 -753q-5 23 -17.5 41.5t-28.5 34.5t-34.5 28.5t-36.5 23.5q-14 8 -18 9t-11 -10l-142 -216q-6 -9 -5.5 -12.5t5.5 -8.5l71 -54q20 -17 35 -30.5
l25 -22.5q3 -3 8 -5t12 -0.5t16.5 7t21.5 18.5q21 20 37 41.5t32 44.5q41 62 30 111zM2056 -319q-5 23 -17.5 41.5t-28.5 34.5t-34.5 28.5t-36.5 23.5q-14 8 -18 9t-11 -10l-142 -216q-6 -9 -5.5 -12.5t5.5 -8.5l71 -54q20 -17 35 -30.5l25 -22.5q3 -3 8 -5t12 -0.5t16.5 7
t21.5 18.5q21 20 37 41.5t32 44.5q41 62 30 111zM1762 -336q-5 23 -17.5 41.5t-28.5 34.5t-34.5 28.5t-36.5 23.5q-14 8 -18 9t-11 -10l-142 -216q-6 -9 -5.5 -12.5t5.5 -8.5l71 -54q20 -17 35 -30.5l25 -22.5q3 -3 8 -5t12 -0.5t16.5 7t21.5 18.5q21 20 37 41.5t32 44.5
q41 62 30 111zM1891 -656q-5 23 -17.5 41.5t-28.5 34.5t-34.5 28.5t-36.5 23.5q-14 8 -18 9t-11 -10l-142 -216q-6 -9 -5.5 -12.5t5.5 -8.5l71 -54q20 -17 35 -30.5l25 -22.5q3 -3 8 -5t12 -0.5t16.5 7t21.5 18.5q21 20 37 41.5t32 44.5q41 62 30 111z" />
    <glyph glyph-name="Pichad" unicode="&#xfb58;&#xfbff;&#xfb7d;&#xfeaa;" horiz-adv-x="1760" 
d="M976 587q-1 -3 -3.5 -5t-2.5 -4q0 -9 113.5 7.5t224.5 42.5q21 6 28.5 -1.5t-1 -40t-30.5 -69.5l-23 -21l-51 -87q-48 -72 -66 -100t-87.5 -115.5t-156.5 -140.5q-87 -52 -200 -52q-81 0 -141 40q-31 21 -61 62q-17 18 -27 55q-9 36 -17 36q-6 -15 -18 -42
q-10 -27 -37 -61q-48 -66 -128 -90q-13 -8 -60 -20q-22 -6 -40 -9.5t-30 -6.5l-98 -24q-36 -8 -49 -8q-15 0 -24 3q0 17 49 53q45 28 91 57.5t92 59.5q117 79 179 153q48 57 82 117q14 19 38 64l64 132q24 48 36 65q30 39 44 36q15 -6 9 -30q-11 -29 -21 -68
q-21 -70 -21 -105q0 -87 55 -129q57 -42 162 -42q57 0 105 17q50 15 101 48q85 55 117 126q-21 0 -154 -11.5t-157 -8.5q-18 5 -12 23q3 18 15 43.5t45 71t67 82.5t80 74q74 57 176 98q109 42 181 42q24 0 53 -14.5t34 -16.5t18 -8q27 -6 44.5 6t60.5 84q18 30 38 30
q12 0 9 -29q-9 -34 -37.5 -92t-73.5 -113q-47 -57 -89 -57v4q-1 -1 -1 -4q-8 0 -77 28q-43 15 -78 15q-49 0 -103.5 -14t-121 -48.5t-114.5 -87.5zM1725 -305q-5 23 -17.5 41.5t-28.5 34.5t-34.5 28.5t-36.5 23.5q-14 8 -18 9t-11 -10l-142 -216q-6 -9 -5.5 -12.5t5.5 -8.5
l71 -54q20 -17 35 -30.5l25 -22.5q3 -3 8 -5t12 -0.5t16.5 7t21.5 18.5q21 20 37 41.5t32 44.5q41 62 30 111zM1431 -322q-5 23 -17.5 41.5t-28.5 34.5t-34.5 28.5t-36.5 23.5q-14 8 -18 9t-11 -10l-142 -216q-6 -9 -5.5 -12.5t5.5 -8.5l71 -54q20 -17 35 -30.5l25 -22.5
q3 -3 8 -5t12 -0.5t16.5 7t21.5 18.5q21 20 37 41.5t32 44.5q41 62 30 111zM1560 -642q-5 23 -17.5 41.5t-28.5 34.5t-34.5 28.5t-36.5 23.5q-14 8 -18 9t-11 -10l-142 -216q-6 -9 -5.5 -12.5t5.5 -8.5l71 -54q20 -17 35 -30.5l25 -22.5q3 -3 8 -5t12 -0.5t16.5 7t21.5 18.5
q21 20 37 41.5t32 44.5q41 62 30 111zM1181 -1002q-5 23 -17.5 41.5t-28.5 34.5t-34.5 28.5t-36.5 23.5q-14 8 -18 9t-11 -10l-142 -216q-6 -9 -5.5 -12.5t5.5 -8.5l71 -54q20 -17 35 -30.5l25 -22.5q3 -3 8 -5t12 -0.5t16.5 7t21.5 18.5q21 20 37 41.5t32 44.5
q20 30 27.5 58.5t2.5 52.5zM887 -1019q-5 23 -17.5 41.5t-28.5 34.5t-34.5 28.5t-36.5 23.5q-14 8 -18 9t-11 -10l-142 -216q-6 -9 -5.5 -12.5t5.5 -8.5l71 -54q20 -17 35 -30.5l25 -22.5q3 -3 8 -5t12 -0.5t16.5 7t21.5 18.5q21 20 37 41.5t32 44.5q20 30 27.5 58.5
t2.5 52.5zM609 -551q-5 23 -17.5 41.5t-28.5 34.5t-34.5 28.5t-36.5 23.5q-14 8 -18 9t-11 -10l-142 -216q-6 -9 -5.5 -12.5t5.5 -8.5l71 -54q20 -17 35 -30.5l25 -22.5q3 -3 8 -5t12 -0.5t16.5 7t21.5 18.5q21 20 37 41.5t32 44.5q41 62 30 111zM315 -568q-5 23 -17.5 41.5
t-28.5 34.5t-34.5 28.5t-36.5 23.5q-14 8 -18 9t-11 -10l-142 -216q-6 -9 -5.5 -12.5t5.5 -8.5l71 -54q20 -17 35 -30.5l25 -22.5q3 -3 8 -5t12 -0.5t16.5 7t21.5 18.5q21 20 37 41.5t32 44.5q20 30 27.5 58.5t2.5 52.5zM444 -888q-5 23 -17.5 41.5t-28.5 34.5t-34.5 28.5
t-36.5 23.5q-14 8 -18 9t-11 -10l-142 -216q-6 -9 -5.5 -12.5t5.5 -8.5l71 -54q20 -17 35 -30.5l25 -22.5q3 -3 8 -5t12 -0.5t16.5 7t21.5 18.5q21 20 37 41.5t32 44.5q20 30 27.5 58.5t2.5 52.5z" />
    <glyph glyph-name="Eich" unicode="&#xfbfe;&#xfb7b;" horiz-adv-x="1639" 
d="M550 1054l185 9q112 0 156 -13q42 -14 42 -54q0 -59 -74 -114q-36 -23 -70.5 -46t-67.5 -46q-133 -97 -241 -211q-48 -48 -108 -134q-57 -88 -84 -153q-41 -106 -48 -157q-8 -60 -8 -75q0 -231 152 -332q120 -79 328 -79q156 0 285 49q74 27 158 83q103 67 187 156
q45 51 113 144q70 103 87 102q7 -5 -3 -35q-9 -28 -47 -103q-54 -105 -117 -197q-102 -144 -229 -256q-129 -111 -255 -174q-171 -80 -366 -80q-215 0 -333 138q-104 123 -104 326q0 66 9 145q11 84 53 198q69 188 171 341q72 102 142 178q26 27 86 80q69 61 100 84
q53 40 69 54q32 24 32 31q-5 15 -56 24l-129 6l-144 3q3 17 10.5 36.5t28.5 55.5q15 22 70 91t178 170.5t514 321.5q74 38 161 77l21 7q15 0 10 -15q-4 -12 -49 -87q-42 -73 -71 -103q-24 -30 -57 -47q-21 -16 -100 -52q-108 -48 -293.5 -150t-293.5 -197zM1578 643
q-5 24 -18 43.5t-30 36.5t-37.5 30.5t-40.5 25.5q-8 5 -14.5 5.5t-13.5 -8.5l-152 -234q-5 -8 -5 -11.5t5 -10.5q40 -25 73.5 -53.5t68.5 -56.5q4 -3 9 -5t12 -0.5t17 7.5t23 20q21 20 38.5 42.5t34.5 48.5q21 32 29.5 62t0.5 58zM1272 624q-1 1 -1 4q-1 2 -1 3t-1 2l-3 9
q-2 6 -4 9q-4 10 -11 20l-9 12l-12 14q-8 8 -16 15t-17 14l-4 3q-6 5 -12 8.5t-12 7.5q-4 3 -8 5q-2 2 -4 3l-4 2q-2 2 -4 2.5t-4 2.5l-7 3q-1 1 -2 1l-2 1q-8 2 -15 -7q-1 -1 -1 -2l-153 -233q-5 -8 -5 -12t5 -9q0 -1 1 -1q20 -13 41 -29q7 -5 14 -11q23 -17 43.5 -35
t42.5 -35q6 -6 14 -6h7l6 2q8 3 19 12l5 4l10 10q5 3 8 8l6 6q3 2 5.5 5t4.5 5q0 1 2 3l16 20q3 3 7 9q2 2 3.5 5t3.5 5l5 7l12 18q0 1 2 3q2 4 5 7.5t5 8.5l5 9q0 1 0.5 1.5t0.5 1.5q2 4 3.5 8t3.5 8l4 12q0 2 0.5 3t0.5 3l3 12q0 2 0.5 4.5t0.5 4.5v14q0 2 -0.5 4.5
t-0.5 4.5q-1 2 -1 5q-1 2 -1 6zM1315 -941q-5 24 -18 43.5t-30 36.5t-37.5 30.5t-40.5 25.5q-8 5 -14.5 5.5t-13.5 -8.5l-152 -234q-5 -8 -5 -11.5t5 -10.5q40 -25 73.5 -53.5t68.5 -56.5q4 -3 9 -5t12 -0.5t17 7.5t23 20q21 20 38.5 42.5t34.5 48.5q21 32 29.5 62t0.5 58z
M1142 -1329q-5 24 -18 43.5t-30 36.5t-37.5 30.5t-40.5 25.5q-8 5 -14.5 5.5t-13.5 -8.5l-152 -234q-5 -8 -5 -11.5t5 -10.5q40 -25 73.5 -53.5t68.5 -56.5q4 -3 9 -5t12 -0.5t17 7.5t23 20q21 20 38.5 42.5t34.5 48.5q21 32 29.5 62t0.5 58zM1009 -960l-3 10l-3 9
q-1 3 -2.5 6t-3.5 6q-9 17 -18 28l-6 7l-17 18l-22 18l-4 3q-6 5 -12 9l-12 8l-8 5l-16 9l-4 2l-3 2q-1 0 -2 1q-8 2 -12 -2l-3 -3l-3 -4l-153 -233q-5 -8 -5 -12.5t6 -9.5q11 -7 21 -13.5t20 -14.5l7 -6q15 -11 30 -23.5t29 -24.5l10 -8q8 -8 17 -14l7 -6q6 -6 14 -6
q5 -1 13 2q2 1 3.5 1.5t3.5 2.5q10 5 27 22q4 4 7.5 7t6.5 7l12 13l7 9l9 11q2 2 3.5 5t3.5 5q3 3 7 9q3 4 5.5 7.5t4.5 7.5q2 3 3.5 5.5t3.5 4.5l12 19l5 10l3 6l2 6q3 6 4.5 12t3.5 12l2 6l2 15v15q0 2 -0.5 2.5t-0.5 2.5z" />
    <glyph glyph-name="Eiich" unicode="&#xfbfe;&#xfbff;&#xfb7b;" horiz-adv-x="1779" 
d="M1072 1191q-28 0 -69.5 22.5t-83.5 22.5q-205 0 -345 -158l185 9q118 0 156 -13q42 -14 42 -53q0 -61 -74 -114q-60 -39 -136 -91q-137 -99 -243 -213q-47 -45 -108 -132q-59 -86 -86 -153q-39 -98 -48 -158q-7 -60 -7 -75q0 -231 154 -331q122 -80 327 -80q156 0 285 50
q62 22 156 82q99 63 188 156q60 66 114 144q67 104 85 102q9 -6 -1 -34q-20 -48 -48 -104q-51 -100 -116 -196q-103 -147 -231 -257q-133 -115 -253 -172q-171 -80 -365 -80q-219 0 -334 138q-105 120 -105 326q7 195 61 342q68 190 173 340q58 86 144 179q13 16 84 79
q76 66 100 84q53 41 69 54q32 24 32 30q-9 36 -185 32q-31 0 -88 -2.5t-56 5.5q62 186 236.5 307.5t336.5 121.5q29 0 61.5 -19t58 -23.5t38.5 15.5q18 22 49 78q18 31 38 31q15 0 9 -30q-8 -30 -38.5 -93t-72.5 -112q-47 -57 -89 -57zM1297 -916q-5 24 -18 43.5t-30 36.5
t-37.5 30.5t-40.5 25.5q-8 5 -14.5 5.5t-13.5 -8.5l-152 -234q-5 -8 -5 -11.5t5 -10.5q40 -25 73.5 -53.5t68.5 -56.5q4 -3 9 -5t12 -0.5t17 7.5t23 20q21 20 38.5 42.5t34.5 48.5q21 32 29.5 62t0.5 58zM1124 -1304q-5 24 -18 43.5t-30 36.5t-37.5 30.5t-40.5 25.5
q-8 5 -14.5 5.5t-13.5 -8.5l-152 -234q-5 -8 -5 -11.5t5 -10.5q40 -25 73.5 -53.5t68.5 -56.5q4 -3 9 -5t12 -0.5t17 7.5t23 20q21 20 38.5 42.5t34.5 48.5q21 32 29.5 62t0.5 58zM991 -935l-3 10l-3 9q-1 3 -2.5 6t-3.5 6q-9 17 -18 28l-6 7l-17 18l-22 18l-4 3q-6 5 -12 9
l-12 8l-8 5l-16 9l-4 2l-3 2q-1 0 -2 1q-8 2 -12 -2l-3 -3l-3 -4l-153 -233q-5 -8 -5 -12.5t6 -9.5q11 -7 21 -13.5t20 -14.5l7 -6q15 -11 30 -23.5t29 -24.5l10 -8q8 -8 17 -14l7 -6q6 -6 14 -6q5 -1 13 2q2 1 3.5 1.5t3.5 2.5q10 5 27 22q4 4 7.5 7t6.5 7l12 13l7 9l9 11
q2 2 3.5 5t3.5 5q3 3 7 9q3 4 5.5 7.5t4.5 7.5q2 3 3.5 5.5t3.5 4.5l12 19l5 10l3 6l2 6q3 6 4.5 12t3.5 12l2 6l2 15v15q0 2 -0.5 2.5t-0.5 2.5zM1705 807q-5 23 -17.5 41.5t-28.5 34.5t-34.5 28.5t-36.5 23.5q-14 8 -18 9t-11 -10l-142 -216q-6 -9 -5.5 -12.5t5.5 -8.5
l71 -54q20 -17 35 -30.5l25 -22.5q3 -3 8 -5t12 -0.5t16.5 7t21.5 18.5q21 20 37 41.5t32 44.5q41 62 30 111zM1411 790q-5 23 -17.5 41.5t-28.5 34.5t-34.5 28.5t-36.5 23.5q-14 8 -18 9t-11 -10l-142 -216q-6 -9 -5.5 -12.5t5.5 -8.5l71 -54q20 -17 35 -30.5l25 -22.5
q3 -3 8 -5t12 -0.5t16.5 7t21.5 18.5q21 20 37 41.5t32 44.5q41 62 30 111zM1137 317q-5 23 -17.5 41.5t-28.5 34.5t-34.5 28.5t-36.5 23.5q-14 8 -18 9t-11 -10l-142 -216q-6 -9 -5.5 -12.5t5.5 -8.5l71 -54q20 -17 35 -30.5l25 -22.5q3 -3 8 -5t12 -0.5t16.5 7t21.5 18.5
q21 20 37 41.5t32 44.5q41 62 30 111zM843 300q-5 23 -17.5 41.5t-28.5 34.5t-34.5 28.5t-36.5 23.5q-14 8 -18 9t-11 -10l-142 -216q-6 -9 -5.5 -12.5t5.5 -8.5l71 -54q20 -17 35 -30.5l25 -22.5q3 -3 8 -5t12 -0.5t16.5 7t21.5 18.5q21 20 37 41.5t32 44.5q41 62 30 111z
" />
    <glyph glyph-name="Ntez" unicode="&#xfee7;&#xfe98;&#xfeb0;" horiz-adv-x="1579" 
d="M1104 532q-17 -8 -35.5 -10.5t-38 -2t-39 2t-37.5 1.5q-81 0 -146.5 -20.5t-122.5 -59.5t-109 -95.5t-107 -128.5q-11 -15 -50 -71t-107 -153q-93 -130 -212 -232q-41 -35 -100.5 -80t-126 -89.5t-132.5 -83.5t-119 -61q-4 -2 -13 -5.5t-25 -9.5q-10 -3 -21 -4.5t-17 1
t-5.5 9.5t13.5 21q8 11 30 29.5t57 44.5q45 32 90 61.5t90 61.5q60 45 126 106.5t138 142.5q41 42 83.5 96.5t89.5 120.5q52 76 76 114q68 99 110.5 158t60.5 81q59 72 120.5 129t125.5 99q90 64 177.5 95.5t173.5 33.5h114q48 0 68 30l97 144q12 16 18 21q17 18 29 13
q7 -4 6 -27q-6 -27 -15 -48q-15 -28 -28 -55t-38.5 -72t-69.5 -112.5t-98 -123.5q-51 -54 -81 -72zM1269 1896q8 -28 -0.5 -58t-29.5 -62q-17 -26 -34.5 -48.5t-38.5 -42.5q-13 -14 -23 -20t-17 -7.5t-12 0.5t-9 5q-35 28 -68.5 56.5t-73.5 53.5q-5 7 -5 10.5t5 11.5
l152 234q7 9 13.5 8.5t14.5 -5.5q20 -12 40.5 -25.5t37.5 -30.5t30 -36.5t18 -43.5zM963 1877q0 -4 1 -6q0 -3 1 -5q0 -2 0.5 -4.5t0.5 -4.5v-14q0 -2 -0.5 -4.5t-0.5 -4.5l-3 -12q0 -2 -0.5 -3t-0.5 -3l-4 -12q-2 -4 -3.5 -8t-3.5 -8q0 -1 -0.5 -1.5t-0.5 -1.5l-5 -9
q-2 -5 -5 -8.5t-5 -7.5q-2 -2 -2 -3l-12 -18l-5 -7q-2 -2 -3.5 -5t-3.5 -5q-4 -6 -7 -9l-16 -20q-2 -2 -2 -3q-2 -2 -4.5 -5t-5.5 -5l-6 -6q-3 -5 -8 -8l-10 -10l-5 -4q-11 -9 -19 -12l-6 -2h-7q-8 0 -14 6q-22 17 -42.5 35t-43.5 35q-7 6 -14 11q-21 16 -41 29q-1 0 -1 1
q-5 5 -5 9t5 12l153 233q0 1 1 2q7 9 15 7l2 -1q1 0 2 -1l7 -3q2 -2 4 -2.5t4 -2.5l4 -2t4 -3q4 -2 8 -5q6 -4 12 -7.5t12 -8.5l4 -3q16 -12 33 -29l12 -14l9 -12q7 -10 11 -20q2 -3 4 -9l3 -9q1 -1 1 -2t1 -3q0 -3 1 -4zM1698 1637q8 -29 -0.5 -60t-31.5 -65
q-14 -23 -29.5 -41.5t-32.5 -35.5q-5 -6 -16 -15t-23 -17t-23 -11.5t-16 2.5q-36 29 -71 59t-77 56q-7 5 -6.5 9.5t5.5 13.5l160 244q7 10 14 9.5t15 -5.5q21 -12 42 -27t39 -32.5t31.5 -38t19.5 -45.5zM499 1481q8 -29 -0.5 -60t-31.5 -65q-14 -23 -29.5 -41.5t-32.5 -35.5
q-5 -6 -16 -15t-23 -17t-23 -11.5t-16 2.5q-36 29 -71 59t-77 56q-7 5 -6.5 9.5t5.5 13.5l160 244q7 10 14 9.5t15 -5.5q21 -12 42 -27t39 -32.5t31.5 -38t19.5 -45.5z" />
    <glyph glyph-name="Dar" unicode="&#x62f;&#x631;" horiz-adv-x="944" 
d="M466 435q-44 -121 -73 -184t-52 -93t-73.5 -60t-87 -46t-83.5 -30t-75 -20q-29 -7 -37 -3q-7 4 3.5 17t60 49.5t177 144t208.5 245.5q27 48 37 48q8 0 7.5 -17t-12.5 -51zM498 43q25 21 59 51q41 34 80.5 74t72.5 83t56 88t31 88q12 54 -37 107q-82 85 -187 139
q-6 4 -7 8t1 7l44 110l60 152q7 17 12.5 29t16.5 5q52 -29 109.5 -77t93 -101t40.5 -137q5 -97 -33.5 -228.5t-122.5 -239.5q-24 -32 -57.5 -60t-71 -51.5t-75.5 -42t-72 -31.5q-18 -6 -25 -2q-2 2 -0.5 10t12.5 19z" />
    <glyph glyph-name="Zar" unicode="&#x630;&#x631;" horiz-adv-x="958" 
d="M466 435q-44 -121 -73 -184t-52 -93t-73.5 -60t-87 -46t-83.5 -30t-75 -20q-29 -7 -37 -3q-7 4 3.5 17t60 49.5t177 144t208.5 245.5q27 48 37 48q8 0 7.5 -17t-12.5 -51zM498 43q25 21 59 51q41 34 80.5 74t72.5 83t56 88t31 88q12 54 -37 107q-82 85 -187 139
q-6 4 -7 8t1 7l44 110l60 152q7 17 12.5 29t16.5 5q52 -29 109.5 -77t93 -101t40.5 -137q5 -97 -33.5 -228.5t-122.5 -239.5q-24 -32 -57.5 -60t-71 -51.5t-75.5 -42t-72 -31.5q-18 -6 -25 -2q-2 2 -0.5 10t12.5 19zM825 1621q8 -29 -0.5 -60t-31.5 -65q-14 -23 -29.5 -41.5
t-32.5 -35.5q-5 -6 -16 -15t-23 -17t-23 -11.5t-16 2.5q-36 29 -71 59t-77 56q-7 5 -6.5 9.5t5.5 13.5l160 244q7 10 14 9.5t15 -5.5q21 -12 42 -27t39 -32.5t31.5 -38t19.5 -45.5z" />
    <glyph glyph-name="Daz" unicode="&#x62f;&#x632;" horiz-adv-x="956" 
d="M466 435q-44 -121 -73 -184t-52 -93t-73.5 -60t-87 -46t-83.5 -30t-75 -20q-29 -7 -37 -3q-7 4 3.5 17t60 49.5t177 144t208.5 245.5q27 48 37 48q8 0 7.5 -17t-12.5 -51zM498 43q25 21 59 51q41 34 80.5 74t72.5 83t56 88t31 88q12 54 -37 107q-82 85 -187 139
q-6 4 -7 8t1 7l44 110l60 152q7 17 12.5 29t16.5 5q52 -29 109.5 -77t93 -101t40.5 -137q5 -97 -33.5 -228.5t-122.5 -239.5q-24 -32 -57.5 -60t-71 -51.5t-75.5 -42t-72 -31.5q-18 -6 -25 -2q-2 2 -0.5 10t12.5 19zM557 1442q8 -29 -0.5 -60t-31.5 -65q-14 -23 -29.5 -41.5
t-32.5 -35.5q-5 -6 -16 -15t-23 -17t-23 -11.5t-16 2.5q-36 29 -71 59t-77 56q-7 5 -6.5 9.5t5.5 13.5l160 244q7 10 14 9.5t15 -5.5q21 -12 42 -27t39 -32.5t31.5 -38t19.5 -45.5z" />
    <glyph glyph-name="Dezh" unicode="&#x62f;&#x698;" horiz-adv-x="970" 
d="M466 435q-44 -121 -73 -184t-52 -93t-73.5 -60t-87 -46t-83.5 -30t-75 -20q-29 -7 -37 -3q-7 4 3.5 17t60 49.5t177 144t208.5 245.5q27 48 37 48q8 0 7.5 -17t-12.5 -51zM498 43q25 21 59 51q41 34 80.5 74t72.5 83t56 88t31 88q12 54 -37 107q-82 85 -187 139
q-6 4 -7 8t1 7l44 110l60 152q7 17 12.5 29t16.5 5q52 -29 109.5 -77t93 -101t40.5 -137q5 -97 -33.5 -228.5t-122.5 -239.5q-24 -32 -57.5 -60t-71 -51.5t-75.5 -42t-72 -31.5q-18 -6 -25 -2q-2 2 -0.5 10t12.5 19zM697 1379q8 -28 -0.5 -58t-29.5 -62q-17 -26 -34.5 -48.5
t-38.5 -42.5q-13 -14 -23 -20t-17 -7.5t-12 0.5t-9 5q-35 28 -68.5 56.5t-73.5 53.5q-5 7 -5 10.5t5 11.5l152 234q7 9 13.5 8.5t14.5 -5.5q20 -12 40.5 -25.5t37.5 -30.5t30 -36.5t18 -43.5zM559 1740q8 -28 -0.5 -58t-29.5 -62q-17 -26 -34.5 -48.5t-38.5 -42.5
q-13 -14 -23 -20t-17 -7.5t-12 0.5t-9 5q-35 28 -68.5 56.5t-73.5 53.5q-5 7 -5 10.5t5 11.5l152 234q7 9 13.5 8.5t14.5 -5.5q20 -12 40.5 -25.5t37.5 -30.5t30 -36.5t18 -43.5zM381 1387q2 -5 3.5 -9t3.5 -9l3 -9q0 -4 1 -6q0 -2 0.5 -4t0.5 -4t0.5 -3t0.5 -3
q0 -19 -4 -35q0 -2 -0.5 -3t-0.5 -3l-4 -12l-3 -6q-1 -2 -1.5 -5t-2.5 -5l-6 -12l-12 -19l-17 -25q-5 -8 -11 -15.5t-12 -15.5l-16 -18t-17 -17l-10 -10l-5 -4q-12 -10 -20.5 -13t-14.5 -1q-4 1 -6.5 2.5t-4.5 3.5l-24 19l-10 9l-59 48l-7 5q-21 16 -41 29q-6 5 -6 9.5
t5 12.5l153 233q7 11 16 9l2 -1q1 0 5 -2q2 -2 4 -2q13 -8 26 -16.5t26 -17.5l11 -9q11 -9 20 -18t17 -20l6 -8l9 -16z" />
    <glyph glyph-name="Koma" unicode="&#xfb90;&#xfee4;&#xfe8e;" horiz-adv-x="871" 
d="M981 1365q141 108 267.5 214.5t314 275t205.5 174.5q45 3 -93 -183q-46 -58 -203.5 -210.5t-555 -457.5t-420.5 -322q215 -40 273 -63q54 -22 54 -54q0 -22 -24 -58q-30 -44 -42 -57q-21 -21 -45 -36q-22 -15 -40 -24q-15 -11 -111 -39q-35 -11 -90 -35
q-101 -43 -101 -61q0 -30 98 -35q12 0 19 -1h26q30 -3 30 -35q0 -22 -24 -94q-42 -126 -110 -194q-70 -70 -154 -70q-80 0 -125 79q-45 81 -45 197q2 96 36 387q17 139 30 247q14 110 26 185q1 9 48 126q51 124 73 171q8 16 12 7q3 -10 -3 -49l-12 -80l-51 -373
q-7 -54 -12 -105q80 49 749 573zM366 700q-81 -18 -146 -67q-3 -44 -3 -51q0 -194 39 -222q6 24 21 63q24 49 66 88q42 38 95 60l156 63q25 14 25 21q2 17 -82 41.5t-171 3.5z" />
    <glyph glyph-name="Goma" unicode="&#xfb94;&#xfee4;&#xfe8e;" horiz-adv-x="871" 
d="M981 1365q141 108 267.5 214.5t314 275t205.5 174.5q45 3 -93 -183q-46 -58 -203.5 -210.5t-555 -457.5t-420.5 -322q215 -40 273 -63q54 -22 54 -54q0 -22 -24 -58q-30 -44 -42 -57q-21 -21 -45 -36q-22 -15 -40 -24q-15 -11 -111 -39q-35 -11 -90 -35
q-101 -43 -101 -61q0 -30 98 -35q12 0 19 -1h26q30 -3 30 -35q0 -22 -24 -94q-42 -126 -110 -194q-70 -70 -154 -70q-80 0 -125 79q-45 81 -45 197q2 96 36 387q17 139 30 247q14 110 26 185q1 9 48 126q51 124 73 171q8 16 12 7q3 -10 -3 -49l-12 -80l-51 -373
q-7 -54 -12 -105q80 49 749 573zM366 700q-81 -18 -146 -67q-3 -44 -3 -51q0 -194 39 -222q6 24 21 63q24 49 66 88q42 38 95 60l156 63q25 14 25 21q2 17 -82 41.5t-171 3.5zM1475 1878q-33 -35 -114 -101.5t-272 -211.5q-7 -1 2 19.5t34 53.5q45 39 134.5 111.5
t244.5 192.5q31 18 -29 -64z" />
    <glyph glyph-name="Gom" unicode="&#xfb95;&#xfee4;&#xfe8e;" horiz-adv-x="781" 
d="M397 411q18 -17 60 -18h62q30 -3 30 -35q0 -22 -24 -94q-42 -126 -110 -194q-70 -70 -154 -70q-80 0 -125 79q-45 81 -45 197q14 147 36 343q17 140 30 248q14 109 26 184q1 9 48 126q51 125 73 171q8 17 12 8q3 -11 -3 -50l-12 -79l-51 -366q92 87 234 247
q147 167 356 416q51 64 273 357q226 298 300 400q25 0 -18 -129q-50 -135 -126 -244q-134 -198 -362 -476q-244 -297 -525 -597q33 -1 76.5 -8.5t137.5 -33t155 -54.5q20 -9 30 -9q-10 -22 -12 -33q-18 -36 -40 -57q-26 11 -63 -37q-21 6 -38 -14q-34 -43 -37 -45
q-26 -28 -44 -42q-16 -10 -62 -13t-62 -17q-11 -9 -14 -12q-31 -31 -12 -49zM555 633q0 27 -105 58q-33 8 -58.5 11.5t-51.5 3.5q-72 0 -96 -27q-10 -13 -16 -37v-2q-5 -78 -5 -96q3 -175 47 -189q18 41 49.5 89.5t69 90t100.5 60.5q66 23 66 38zM1171 2088
q-23 -42 -85 -126.5t-211 -272.5q-7 -4 -3 18.5t20 60.5q34 50 102.5 142t188.5 248q26 25 -12 -70z" />
    <glyph glyph-name="Kom" unicode="&#xfb91;&#xfee4;&#xfe8e;" horiz-adv-x="781" 
d="M397 411q18 -17 60 -18h62q30 -3 30 -35q0 -22 -24 -94q-42 -126 -110 -194q-70 -70 -154 -70q-80 0 -125 79q-45 81 -45 197q14 147 36 343q17 140 30 248q14 109 26 184q1 9 48 126q51 125 73 171q8 17 12 8q3 -11 -3 -50l-12 -79l-51 -366q92 87 234 247
q147 167 356 416q51 64 273 357q226 298 300 400q25 0 -18 -129q-50 -135 -126 -244q-134 -198 -362 -476q-244 -297 -525 -597q33 -1 76.5 -8.5t137.5 -33t155 -54.5q20 -9 30 -9q-10 -22 -12 -33q-18 -36 -40 -57q-26 11 -63 -37q-21 6 -38 -14q-34 -43 -37 -45
q-26 -28 -44 -42q-16 -10 -62 -13t-62 -17q-11 -9 -14 -12q-31 -31 -12 -49zM555 633q0 27 -105 58q-33 8 -58.5 11.5t-51.5 3.5q-72 0 -96 -27q-10 -13 -16 -37v-2q-5 -78 -5 -96q3 -175 47 -189q18 41 49.5 89.5t69 90t100.5 60.5q66 23 66 38z" />
    <glyph glyph-name="Sa" unicode="&#xfe9b;&#x640;&#xfe8e;" horiz-adv-x="542" 
d="M84 316q0 47 24.5 245t37 283.5t28.5 181.5t31 155q17 49 36.5 99t40.5 99q14 22 18 -7q-25 -166 -46 -344.5t-28.5 -255.5t-7.5 -90q-4 -62 -5 -97v-66q0 -126 67 -176q41 -27 81.5 -18t62 42t36.5 77.5t29 44.5q16 0 13 -32q-1 -54 -33.5 -175.5t-88 -199.5t-134.5 -82
q-81 3 -126 91q-41 87 -36 225zM925 1746q8 -28 -0.5 -58t-29.5 -62q-17 -26 -34.5 -48.5t-38.5 -42.5q-13 -14 -23 -20t-17 -7.5t-12 0.5t-9 5q-35 28 -68.5 56.5t-73.5 53.5q-5 7 -5 10.5t5 11.5l152 234q7 9 13.5 8.5t14.5 -5.5q20 -12 40.5 -25.5t37.5 -30.5t30 -36.5
t18 -43.5zM787 2107q8 -28 -0.5 -58t-29.5 -62q-17 -26 -34.5 -48.5t-38.5 -42.5q-13 -14 -23 -20t-17 -7.5t-12 0.5t-9 5q-35 28 -68.5 56.5t-73.5 53.5q-5 7 -5 10.5t5 11.5l152 234q7 9 13.5 8.5t14.5 -5.5q20 -12 40.5 -25.5t37.5 -30.5t30 -36.5t18 -43.5zM609 1754
q2 -5 3.5 -9t3.5 -9l3 -9q0 -4 1 -6q0 -2 0.5 -4t0.5 -4t0.5 -3t0.5 -3q0 -19 -4 -35q0 -2 -0.5 -3t-0.5 -3l-4 -12l-3 -6q-1 -2 -1.5 -5t-2.5 -5l-6 -12l-12 -19l-17 -25q-5 -8 -11 -15.5t-12 -15.5l-16 -18t-17 -17l-10 -10l-5 -4q-12 -10 -20.5 -13t-14.5 -1
q-4 1 -6.5 2.5t-4.5 3.5l-24 19l-10 9l-59 48l-7 5q-21 16 -41 29q-6 5 -6 9.5t5 12.5l153 233q7 11 16 9l2 -1q1 0 5 -2q2 -2 4 -2q13 -8 26 -16.5t26 -17.5l11 -9q11 -9 20 -18t17 -20l6 -8l9 -16z" />
    <glyph glyph-name="Ta" unicode="&#xfe97;&#x640;&#xfe8e;" horiz-adv-x="544" 
d="M84 316q0 47 24.5 245t37 283.5t28.5 181.5t31 155q17 49 36.5 99t40.5 99q14 22 18 -7q-25 -166 -46 -344.5t-28.5 -255.5t-7.5 -90q-4 -62 -5 -97v-66q0 -126 67 -176q41 -27 81.5 -18t62 42t36.5 77.5t29 44.5q16 0 13 -32q-1 -54 -33.5 -175.5t-88 -199.5t-134.5 -82
q-81 3 -126 91q-41 87 -36 225zM946 1832q8 -28 -0.5 -58t-29.5 -62q-17 -26 -34.5 -48.5t-38.5 -42.5q-13 -14 -23 -20t-17 -7.5t-12 0.5t-9 5q-35 28 -68.5 56.5t-73.5 53.5q-5 7 -5 10.5t5 11.5l152 234q7 9 13.5 8.5t14.5 -5.5q20 -12 40.5 -25.5t37.5 -30.5t30 -36.5
t18 -43.5zM640 1813q0 -4 1 -6q0 -3 1 -5q0 -2 0.5 -4.5t0.5 -4.5v-14q0 -2 -0.5 -4.5t-0.5 -4.5l-3 -12q0 -2 -0.5 -3t-0.5 -3l-4 -12q-2 -4 -3.5 -8t-3.5 -8q0 -1 -0.5 -1.5t-0.5 -1.5l-5 -9q-2 -5 -5 -8.5t-5 -7.5q-2 -2 -2 -3l-12 -18l-5 -7q-2 -2 -3.5 -5t-3.5 -5
q-4 -6 -7 -9l-16 -20q-2 -2 -2 -3q-2 -2 -4.5 -5t-5.5 -5l-6 -6q-3 -5 -8 -8l-10 -10l-5 -4q-11 -9 -19 -12l-6 -2h-7q-8 0 -14 6q-22 17 -42.5 35t-43.5 35q-7 6 -14 11q-21 16 -41 29q-1 0 -1 1q-5 5 -5 9t5 12l153 233q0 1 1 2q7 9 15 7l2 -1q1 0 2 -1l7 -3q2 -2 4 -2.5
t4 -2.5l4 -2t4 -3q4 -2 8 -5q6 -4 12 -7.5t12 -8.5l4 -3q16 -12 33 -29l12 -14l9 -12q7 -10 11 -20q2 -3 4 -9l3 -9q1 -1 1 -2t1 -3q0 -3 1 -4z" />
    <glyph glyph-name="Na" unicode="&#xfee7;&#x640;&#xfe8e;" horiz-adv-x="545" 
d="M84 316q0 47 24.5 245t37 283.5t28.5 181.5t31 155q17 49 36.5 99t40.5 99q14 22 18 -7q-25 -166 -46 -344.5t-28.5 -255.5t-7.5 -90q-4 -62 -5 -97v-66q0 -126 67 -176q41 -27 81.5 -18t62 42t36.5 77.5t29 44.5q16 0 13 -32q-1 -54 -33.5 -175.5t-88 -199.5t-134.5 -82
q-81 3 -126 91q-41 87 -36 225zM743 1712q8 -29 -0.5 -60t-31.5 -65q-14 -23 -29.5 -41.5t-32.5 -35.5q-5 -6 -16 -15t-23 -17t-23 -11.5t-16 2.5q-36 29 -71 59t-77 56q-7 5 -6.5 9.5t5.5 13.5l160 244q7 10 14 9.5t15 -5.5q21 -12 42 -27t39 -32.5t31.5 -38t19.5 -45.5z
" />
    <glyph glyph-name="Fak" unicode="&#xfed3;&#xfb8f;" horiz-adv-x="2638" 
d="M2039 570q-3 -116 27 -166t77.5 -70.5t90.5 -20.5q188 0 242 135q-8 27 -26 45t-42 11q-3 0 -30.5 -16t-45.5 -16q-74 6 -99 56q-12 22 -1.5 56t36.5 95.5t58 112.5q46 70 91 70q59 0 119 -66.5t57 -171.5q0 -99 -50.5 -237t-123.5 -231q-47 -57 -83 -89
q-79 -67 -186 -67q-127 0 -185.5 94.5t-55.5 230.5v2v1q1 77 10 162.5t18 149.5q0 11 -3 12q-6 2 -12 -4q-28 -39 -40 -56q-48 -67 -84 -117q-90 -114 -231 -217q-138 -102 -294 -161q-158 -58 -356 -99q-193 -42 -411 -42h-45q-123 0 -216 15q-132 24 -178 83
q-48 57 -51 172q1 99 13 210t42 98q9 0 14 -60q4 -60 45 -107q84 -91 402 -91q171 0 277 9q501 42 822 243q149 87 236 211q61 89 100 227l42 175q8 32 71 156q18 41 31 68l20 39q4 9 9.5 14.5t11 5.5t8.5 -6t2 -19q-15 -61 -22 -105q-71 -382 -84.5 -526t-16.5 -198z
M2579 1921q98 77 418 346t514.5 462.5t206.5 202.5q18 8 10 -22q-30 -53 -73 -134q-39 -69 -87 -129q-54 -69 -107 -127q-75 -81 -177.5 -176.5t-407 -344.5t-505 -402.5t-206.5 -144.5q-27 4 48 121q35 53 78 96zM2757 1380q-6 25 -19.5 45.5t-31.5 38t-39 32.5t-42 27
q-8 5 -15 5.5t-14 -9.5l-160 -244q-5 -9 -5.5 -13.5t6.5 -9.5q42 -26 77 -56t71 -59q5 -6 16 -2.5t23 11.5t23 17t16 15q17 17 32.5 35.5t29.5 41.5q23 34 31.5 65t0.5 60z" />
    <glyph glyph-name="Ghak" unicode="&#xfed7;&#xfb8f;" horiz-adv-x="2708" 
d="M2051 570q-3 -116 27 -166t77.5 -70.5t90.5 -20.5q188 0 242 135q-8 27 -26 45t-42 11q-3 0 -30.5 -16t-45.5 -16q-74 6 -99 56q-12 22 -1.5 56t36.5 95.5t58 112.5q46 70 91 70q59 0 119 -66.5t57 -171.5q0 -99 -50.5 -237t-123.5 -231q-47 -57 -83 -89
q-79 -67 -186 -67q-127 0 -185.5 94.5t-55.5 230.5v2v1q1 77 10 162.5t18 149.5q0 11 -3 12q-6 2 -12 -4q-28 -39 -40 -56q-48 -67 -84 -117q-90 -114 -231 -217q-138 -102 -294 -161q-158 -58 -356 -99q-193 -42 -411 -42h-45q-123 0 -216 15q-132 24 -178 83
q-48 57 -51 172q1 99 13 210t42 98q9 0 14 -60q4 -60 45 -107q84 -91 402 -91q171 0 277 9q501 42 822 243q149 87 236 211q61 89 100 227l42 175q8 32 71 156q18 41 31 68l20 39q4 9 9.5 14.5t11 5.5t8.5 -6t2 -19q-15 -61 -22 -105q-71 -382 -84.5 -526t-16.5 -198z
M2337 1633q63 48 125 87t125 81q873 589 1011 697q157 122 164 131q32 21 13.5 -24.5t-148.5 -205.5q-226 -204 -574 -436.5t-722 -453.5q-25 -17 -48.5 -31.5t-45.5 -26.5q-50 -30 -49 -4q0 11 67 101q42 53 82 85zM3022 1305q8 -28 -0.5 -58t-29.5 -62
q-17 -26 -34.5 -48.5t-38.5 -42.5q-13 -14 -23 -20t-17 -7.5t-12 0.5t-9 5q-35 28 -68.5 56.5t-73.5 53.5q-5 7 -5 10.5t5 11.5l152 234q7 9 13.5 8.5t14.5 -5.5q20 -12 40.5 -25.5t37.5 -30.5t30 -36.5t18 -43.5zM2716 1286q0 -4 1 -6q0 -3 1 -5q0 -2 0.5 -4.5t0.5 -4.5
v-14q0 -2 -0.5 -4.5t-0.5 -4.5l-3 -12q0 -2 -0.5 -3t-0.5 -3l-4 -12q-2 -4 -3.5 -8t-3.5 -8q0 -1 -0.5 -1.5t-0.5 -1.5l-5 -9q-2 -5 -5 -8.5t-5 -7.5q-2 -2 -2 -3l-12 -18l-5 -7q-2 -2 -3.5 -5t-3.5 -5q-4 -6 -7 -9l-16 -20q-2 -2 -2 -3q-2 -2 -4.5 -5t-5.5 -5l-6 -6
q-3 -5 -8 -8l-10 -10l-5 -4q-11 -9 -19 -12l-6 -2h-7q-8 0 -14 6q-22 17 -42.5 35t-43.5 35q-7 6 -14 11q-21 16 -41 29q-1 0 -1 1q-5 5 -5 9t5 12l153 233q0 1 1 2q7 9 15 7l2 -1q1 0 2 -1l7 -3q2 -2 4 -2.5t4 -2.5l4 -2t4 -3q4 -2 8 -5q6 -4 12 -7.5t12 -8.5l4 -3
q9 -7 17 -14t16 -15l12 -14l9 -12q7 -10 11 -20q2 -3 4 -9l3 -9q1 -1 1 -2t1 -3q0 -3 1 -4z" />
    <glyph glyph-name="Shak" unicode="&#xfeb7;&#xfb8f;" horiz-adv-x="2922" 
d="M2066 561q0 -53 1 -77q0 -37 17 -96q18 -46 60 -76q40 -30 108 -30q93 0 147 51q72 67 97 78q17 7 38.5 2.5t45.5 -2.5q27 0 51 61.5t33 66.5t21 2q35 -12 48 -12q26 0 45 35q8 12 26 63q15 43 24 43q12 0 12 -27q0 -102 -59 -198q-61 -96 -124 -96q-41 -58 -47 -64
q-40 -47 -73 -47q-33 6 -55 6t-47 -12q-30 -12 -114 -123q-84 -109 -182 -109q-106 0 -156 94q-45 92 -46 227l-2 1q2 77 11 162.5t18 149.5q0 11 -3 12q-6 2 -12 -4q-29 -39 -41 -56q-48 -67 -84 -117q-90 -114 -231 -217q-138 -102 -294 -161q-157 -58 -355 -99
q-194 -42 -411 -42h-45q-123 0 -216 15q-132 24 -179 83q-48 57 -51 172q2 99 14 210t42 98q9 0 13 -60q5 -60 45 -107q84 -91 402 -91q171 0 278 9q501 42 822 243q148 87 235 211q62 89 101 227l42 175q7 32 70 156q18 41 32 68l19 39q4 9 10 14.5t11 5.5t8.5 -6t2.5 -19
q-15 -61 -23 -105q-85 -438 -93 -562q-7 -111 -7 -165zM2354 1633q63 48 125 87t125 81q873 589 1011 697q157 122 164 131q32 21 13.5 -24.5t-148.5 -205.5q-226 -204 -574 -436.5t-722 -453.5q-25 -17 -48.5 -31.5t-45.5 -26.5q-50 -30 -49 -4q0 11 67 101q42 53 82 85z
M3047 1054q8 -28 -0.5 -58t-29.5 -62q-17 -26 -34.5 -48.5t-38.5 -42.5q-13 -14 -23 -20t-17 -7.5t-12 0.5t-9 5q-35 28 -68.5 56.5t-73.5 53.5q-5 7 -5 10.5t5 11.5l152 234q7 9 13.5 8.5t14.5 -5.5q20 -12 40.5 -25.5t37.5 -30.5t30 -36.5t18 -43.5zM2909 1415
q8 -28 -0.5 -58t-29.5 -62q-17 -26 -34.5 -48.5t-38.5 -42.5q-13 -14 -23 -20t-17 -7.5t-12 0.5t-9 5q-35 28 -68.5 56.5t-73.5 53.5q-5 7 -5 10.5t5 11.5l152 234q7 9 13.5 8.5t14.5 -5.5q20 -12 40.5 -25.5t37.5 -30.5t30 -36.5t18 -43.5zM2731 1062q2 -5 3.5 -9t3.5 -9
l3 -9q0 -4 1 -6q0 -2 0.5 -4t0.5 -4t0.5 -3t0.5 -3q0 -19 -4 -35q0 -2 -0.5 -3t-0.5 -3l-4 -12l-3 -6q-1 -2 -1.5 -5t-2.5 -5l-6 -12l-12 -19l-17 -25q-5 -8 -11 -15.5t-12 -15.5l-16 -18t-17 -17l-10 -10l-5 -4q-12 -10 -20.5 -13t-14.5 -1q-4 1 -6.5 2.5t-4.5 3.5l-24 19
l-10 9l-59 48l-7 5q-21 16 -41 29q-6 5 -6 9.5t5 12.5l153 233q7 11 16 9l2 -1q1 0 5 -2q2 -2 4 -2q13 -8 26 -16.5t26 -17.5l11 -9q11 -9 20 -18t17 -20l6 -8l9 -16z" />
    <glyph glyph-name="Shag" unicode="&#xfeb7;&#xfb93;" horiz-adv-x="2958" 
d="M2066 561q0 -53 1 -77q0 -37 17 -96q18 -46 60 -76q40 -30 108 -30q93 0 147 51q72 67 97 78q17 7 38.5 2.5t45.5 -2.5q27 0 51 61.5t33 66.5t21 2q35 -12 48 -12q26 0 45 35q8 12 26 63q15 43 24 43q12 0 12 -27q0 -102 -59 -198q-61 -96 -124 -96q-41 -58 -47 -64
q-40 -47 -73 -47q-33 6 -55 6t-47 -12q-30 -12 -114 -123q-84 -109 -182 -109q-106 0 -156 94q-45 92 -46 227l-2 1q2 77 11 162.5t18 149.5q0 11 -3 12q-6 2 -12 -4q-29 -39 -41 -56q-48 -67 -84 -117q-90 -114 -231 -217q-138 -102 -294 -161q-157 -58 -355 -99
q-194 -42 -411 -42h-45q-123 0 -216 15q-132 24 -179 83q-48 57 -51 172q2 99 14 210t42 98q9 0 13 -60q5 -60 45 -107q84 -91 402 -91q171 0 278 9q501 42 822 243q148 87 235 211q62 89 101 227l42 175q7 32 70 156q18 41 32 68l19 39q4 9 10 14.5t11 5.5t8.5 -6t2.5 -19
q-15 -61 -23 -105q-85 -438 -93 -562q-7 -111 -7 -165zM3474 2489q-35 -33 -120 -94.5t-285 -194.5q-7 -1 3.5 19t37.5 51q47 37 141 103.5t256 177.5q32 16 -33 -62zM2356 1627q63 48 125 87t125 81q873 589 1011 697q157 122 164 131q32 21 13.5 -24.5t-148.5 -205.5
q-226 -204 -574 -436.5t-722 -453.5q-25 -17 -48.5 -31.5t-45.5 -26.5q-50 -30 -49 -4q0 11 67 101q42 53 82 85zM3143 1096q8 -28 -0.5 -58t-29.5 -62q-17 -26 -34.5 -48.5t-38.5 -42.5q-13 -14 -23 -20t-17 -7.5t-12 0.5t-9 5q-35 28 -68.5 56.5t-73.5 53.5q-5 7 -5 10.5
t5 11.5l152 234q7 9 13.5 8.5t14.5 -5.5q20 -12 40.5 -25.5t37.5 -30.5t30 -36.5t18 -43.5zM3005 1457q8 -28 -0.5 -58t-29.5 -62q-17 -26 -34.5 -48.5t-38.5 -42.5q-13 -14 -23 -20t-17 -7.5t-12 0.5t-9 5q-35 28 -68.5 56.5t-73.5 53.5q-5 7 -5 10.5t5 11.5l152 234
q7 9 13.5 8.5t14.5 -5.5q20 -12 40.5 -25.5t37.5 -30.5t30 -36.5t18 -43.5zM2827 1104q2 -5 3.5 -9t3.5 -9l3 -9q0 -4 1 -6q0 -2 0.5 -4t0.5 -4t0.5 -3t0.5 -3q0 -19 -4 -35q0 -2 -0.5 -3t-0.5 -3l-4 -12l-3 -6q-1 -2 -1.5 -5t-2.5 -5l-6 -12l-12 -19l-17 -25
q-5 -8 -11 -15.5t-12 -15.5l-16 -18t-17 -17l-10 -10l-5 -4q-12 -10 -20.5 -13t-14.5 -1q-4 1 -6.5 2.5t-4.5 3.5l-24 19l-10 9l-59 48l-7 5q-21 16 -41 29q-6 5 -6 9.5t5 12.5l153 233q7 11 16 9l2 -1q1 0 5 -2q2 -2 4 -2q13 -8 26 -16.5t26 -17.5l11 -9q11 -9 20 -18
t17 -20l6 -8l9 -16z" />
    <glyph glyph-name="Lellah" unicode="&#xfedf;&#xfee0;&#xfeea;" horiz-adv-x="1503" 
d="M1322 609q1 28 2 45q1 8 4 16.5t5 13.5q21 39 43 80t38.5 67.5t25 36.5t10.5 0q-1 -7 -1 -14q-3 -122 -31.5 -257.5t-84.5 -247t-135 -187.5q-86 -67 -164 -64q-23 1 -48 7.5t-47.5 20t-39 33.5t-22.5 49q-25 -32 -54.5 -62t-63.5 -52.5t-73 -33.5t-83 -6q-42 6 -77 24
t-61 44t-43 58.5t-23 68.5q-30 -18 -152 -108.5t-182 -115.5q-37 -15 -52 -14q-11 1 -9.5 7t9.5 11q77 56 265 231q203 189 276 290q10 8 18 3.5t10 -11.5q-9 -57 9 -99q20 -47 74.5 -71.5t120.5 -13.5q34 6 65 25.5t57 48.5t47 67t35 82q3 9 9.5 13t12.5 3.5t10.5 -5.5
t2.5 -14q-22 -125 19.5 -161.5t96.5 -36.5q24 -1 52.5 7.5t54.5 25t46 40.5t26 53q2 30 2 103z" />
    <glyph glyph-name="Fa" unicode="&#xfed3;&#xfe8e;" horiz-adv-x="766" 
d="M200 570q0 -50 12.5 -93t37.5 -75t61.5 -52.5t84.5 -26.5q183 -10 248 117q3 6 0 13q-14 25 -32 37q-21 14 -40 3q-13 -9 -34.5 -15.5t-43.5 -6.5q-28 0 -56.5 14t-42.5 43q-12 22 -1.5 56t40.5 95.5t65 122t80 60.5q59 0 119 -66.5t57 -171.5q0 -99 -50.5 -237
t-123.5 -231q-47 -57 -83 -88q-79 -68 -186 -68q-127 0 -185.5 94.5t-55.5 230.5q0 38 24.5 236t37 283.5t28.5 181.5t31 155q17 49 36.5 99t40.5 99q14 22 18 -7q-25 -166 -46 -344.5t-28.5 -255.5t-7.5 -90q-5 -77 -5 -112zM768 1588q8 -29 -0.5 -60t-31.5 -65
q-14 -23 -29.5 -41.5t-32.5 -35.5q-5 -6 -16 -15t-23 -17t-23 -11.5t-16 2.5q-36 29 -71 59t-77 56q-7 5 -6.5 9.5t5.5 13.5l160 244q7 10 14 9.5t15 -5.5q21 -12 42 -27t39 -32.5t31.5 -38t19.5 -45.5z" />
    <glyph glyph-name="Gha" unicode="&#xfed7;&#xfe8e;" horiz-adv-x="952" 
d="M200 570q0 -50 12.5 -93t37.5 -75t61.5 -52.5t84.5 -26.5q183 -10 248 117q3 6 0 13q-14 25 -32 37q-21 14 -40 3q-13 -9 -34.5 -15.5t-43.5 -6.5q-28 0 -56.5 14t-42.5 43q-12 22 -1.5 56t40.5 95.5t65 122t80 60.5q59 0 119 -66.5t57 -171.5q0 -99 -50.5 -237
t-123.5 -231q-47 -57 -83 -88q-79 -68 -186 -68q-127 0 -185.5 94.5t-55.5 230.5q0 38 24.5 236t37 283.5t28.5 181.5t31 155q17 49 36.5 99t40.5 99q14 22 18 -7q-25 -166 -46 -344.5t-28.5 -255.5t-7.5 -90q-5 -77 -5 -112zM991 1711q8 -28 -0.5 -58t-29.5 -62
q-17 -26 -34.5 -48.5t-38.5 -42.5q-13 -14 -23 -20t-17 -7.5t-12 0.5t-9 5q-35 28 -68.5 56.5t-73.5 53.5q-5 7 -5 10.5t5 11.5l152 234q7 9 13.5 8.5t14.5 -5.5q20 -12 40.5 -25.5t37.5 -30.5t30 -36.5t18 -43.5zM685 1692q0 -4 1 -6q0 -3 1 -5q0 -2 0.5 -4.5t0.5 -4.5v-14
q0 -2 -0.5 -4.5t-0.5 -4.5l-3 -12q0 -2 -0.5 -3t-0.5 -3l-4 -12q-2 -4 -3.5 -8t-3.5 -8q0 -1 -0.5 -1.5t-0.5 -1.5l-5 -9q-2 -5 -5 -8.5t-5 -7.5q-2 -2 -2 -3l-12 -18l-5 -7q-2 -2 -3.5 -5t-3.5 -5q-4 -6 -7 -9l-16 -20q-2 -2 -2 -3q-2 -2 -4.5 -5t-5.5 -5l-6 -6
q-3 -5 -8 -8l-10 -10l-5 -4q-11 -9 -19 -12l-6 -2h-7q-8 0 -14 6q-22 17 -42.5 35t-43.5 35q-7 6 -14 11q-21 16 -41 29q-1 0 -1 1q-5 5 -5 9t5 12l153 233q0 1 1 2q7 9 15 7l2 -1q1 0 2 -1l7 -3q2 -2 4 -2.5t4 -2.5l4 -2t4 -3q4 -2 8 -5q6 -4 12 -7.5t12 -8.5l4 -3
q16 -12 33 -29l12 -14l9 -12q7 -10 11 -20q2 -3 4 -9l3 -9q1 -1 1 -2t1 -3q0 -3 1 -4z" />
    <glyph glyph-name="Komak" unicode="&#xfb90;&#xfee4;&#xfb8f;" horiz-adv-x="2841" 
d="M2929 1362q141 108 268 214.5t314 274.5q246 225 264 231q45 3 -144 -257q-46 -58 -207.5 -199t-559 -448.5t-419.5 -324.5q214 -40 273 -63q54 -22 54 -54q0 -22 -24 -58q-30 -44 -42 -57q-21 -21 -45 -36q-23 -15 -41 -24q-15 -11 -111 -39q-34 -11 -90 -35
q-90 -39 -99 -57q-3 -13 6 -22q18 -17 60 -18h62q30 -3 30 -35q0 -22 -24 -94q-42 -126 -110 -194q-70 -70 -154 -70q-80 0 -125 79q-45 81 -45 197q3 141 13 225.5t19 149.5q0 10 -3 12q-6 1 -12 -5q-29 -39 -41 -55q-48 -68 -84 -117q-90 -114 -231 -218
q-138 -102 -294 -160q-157 -59 -355 -99q-194 -42 -411 -42h-45q-123 0 -216 15q-132 24 -179 82q-48 57 -51 173q2 99 14 210t42 97q9 0 13 -60q5 -60 45 -106q84 -92 402 -92q171 0 278 9q501 42 822 243q148 87 235 212q62 88 101 226l42 176q7 31 70 156q18 40 32 67
l19 39q4 10 10 15.5t11 5.5t8.5 -6t2.5 -19q-15 -62 -23 -105q-75 -384 -90 -527q42 27 765 587zM2406 1677q75 73 230 200.5t475.5 397t514.5 463t206 202.5q18 12 11 -23q-30 -52 -71.5 -127t-89.5 -135q-54 -69 -106 -128q-75 -76 -178 -170.5t-407.5 -346.5t-504.5 -406
t-206 -145q-27 5 48 122q34 52 78 96zM2317 697q-88 -30 -160 -90q-3 -19 -3 -37q0 -203 45 -218q3 3 7.5 16.5t19.5 51.5q24 49 66 88q42 38 94 60l156 63q26 14 26 21q1 17 -81.5 43t-169.5 2z" />
    <glyph glyph-name="SadHa" unicode="&#xfebb;&#xfeea;" horiz-adv-x="1575" 
d="M1342 720q-37 0 -88 -47q-23 -18 -135 -168q0 -7 33 -7q34 0 82 7q38 3 81 24q59 26 102 69q41 38 48 72q2 15 -43 32q-45 18 -80 18zM181 222q72 76 111 105q84 61 167 61q42 0 73 -12q83 -37 107 -37q63 0 103 24q42 25 78 70q51 63 59 68q40 40 70 40q17 0 53 -16
q30 -17 58 -17l104 144q81 108 99 126q94 107 165 107q63 0 102 -39q27 -32 27 -71q0 -114 -84 -252q-86 -138 -177 -196q-105 -74 -218 -74q-90 0 -150 30q-45 21 -64 35q-33 0 -80 -74q-57 -81 -99 -126q-87 -102 -211 -102q-51 0 -105 32q-54 30 -95 30q-55 0 -129 -45
q-57 -33 -150 -93q-22 15 30 97q62 86 156 185z" />
    <glyph glyph-name="EinHa" unicode="&#xfecb;&#xfeea;" horiz-adv-x="1127" 
d="M823 172q-193 -163 -337 -163q-59 0 -123 31q-68 30 -120 30q-74 0 -155 -46q-85 -45 -91 -39q-15 15 22 61q57 74 200 197q37 36 109 79q86 50 144 50q48 0 92 -18q42 -17 48 -17q9 24 20 49l22 50q16 35 35 70t38 71q63 105 113 141q49 36 106 36q51 0 83 -24
q30 -25 30 -52q0 -65 -51 -65q-8 0 -35 14q-27 15 -67 15q-60 0 -104 -39q-40 -39 -40 -87q-8 -44 30 -66q39 -24 76 -30q69 -9 140 82q64 89 76 87q26 -13 -43 -138q-113 -193 -218 -279z" />
    <glyph glyph-name="FeHa" unicode="&#xfed3;&#xfeea;" horiz-adv-x="966" 
d="M192 205q54 63 111 102q79 53 156 53q40 0 82 -11q38 -9 47 -9q75 0 144 44q67 42 67 76q0 15 -39 50q-7 6 -22 18q-20 -12 -24 -12q-33 -15 -59 -15q-55 0 -88 27q-35 27 -35 85q0 6 80 194q19 46 51 88q27 32 57 32q78 0 151 -75q72 -77 72 -198q0 -98 -57 -234
q-52 -117 -106 -195q-65 -90 -134 -149q-94 -76 -190 -76q-38 0 -89 18q-51 19 -90 19q-54 0 -103 -28q-35 -20 -74 -57q-43 -39 -61 -26q-17 9 -17 24q0 21 26 59q28 45 69 99q55 76 75 97zM818 1709q8 -29 -0.5 -60t-31.5 -65q-14 -23 -29.5 -41.5t-32.5 -35.5
q-5 -6 -16 -15t-23 -17t-23 -11.5t-16 2.5q-36 29 -71 59t-77 56q-7 5 -6.5 9.5t5.5 13.5l160 244q7 10 14 9.5t15 -5.5q21 -12 42 -27t39 -32.5t31.5 -38t19.5 -45.5z" />
    <glyph glyph-name="KafHa" unicode="&#xfb90;&#xfeea;" horiz-adv-x="964" 
d="M841 1437l-12 -231q-4 -104 -9 -230q0 -63 -1.5 -125t-1.5 -124q0 -103 -27 -216q-28 -112 -67 -198q-56 -123 -120 -199q-99 -117 -212 -117q-27 0 -70 15q-42 16 -68 16q-46 0 -96 -25q-15 -9 -58 -39l-41 -36q-19 -17 -36 -8q-15 8 3 50q5 9 11.5 18.5t12.5 23.5
q33 60 81 120q26 30 43 53t28 38q34 44 91 78q59 30 99 30q26 0 65 -10q40 -11 54 -11q73 6 114 41q42 36 58 82q11 21 12 48q3 20 3 65v30.5v33.5q-3 18 -3 29l-3 285q0 91 5 171q4 75 16 106q14 29 45 122q32 88 63 159q14 15 20 13q9 -4 9 -25q0 -6 -8 -33zM994 1707
q63 48 125 87t125 81q873 589 1011 697q157 122 164 131q32 21 13.5 -24.5t-148.5 -205.5q-226 -204 -574 -436.5t-722 -453.5q-25 -17 -48.5 -31.5t-45.5 -26.5q-50 -30 -49 -4q0 11 67 101q42 53 82 85z" />
    <glyph glyph-name="MimHa" unicode="&#xfee3;&#xfeea;" horiz-adv-x="1345" 
d="M238 220q53 48 119 90q96 56 151 56q30 0 62 -14q67 -27 115 -27q104 0 167 56q39 33 103 138q35 49 76 91t76 62q13 12 52 67q11 17 22 33.5t20 34.5q21 0 75 -84t54 -158q0 -69 -48 -127q-46 -60 -96 -60q-37 0 -76 9q-41 9 -59 9q-46 0 -117 -77q-9 -10 -97 -123
q-89 -112 -126 -138q-81 -58 -197 -58q-60 0 -120 28q-60 27 -102 27q-64 0 -133 -46q-140 -92 -149 -89q-27 17 59 120q81 101 169 180z" />
    <glyph glyph-name="Mod" unicode="&#xfee3;&#xfeaa;" horiz-adv-x="919" 
d="M418 105q-73 -92 -195 -116q-97 -22 -203 -40q-20 -1 -30.5 3.5t19.5 25.5q122 72 242.5 142.5t183.5 150t116 187.5t96 202q11 20 25 14.5t2 -36.5q-36 -86 -43 -142q1 -94 39 -142q40 -50 90 -50q9 3 30 66q22 63 37 96q44 -9 63 -43q20 -33 22 -66
q0 -114 -70.5 -235.5t-184.5 -121.5q-78 3 -129 78q-33 48 -35 135q-47 -76 -75 -108z" />
    <glyph glyph-name="Moz" unicode="&#xfee3;&#xfeac;" horiz-adv-x="919" 
d="M418 105q-73 -92 -195 -116q-97 -22 -203 -40q-20 -1 -30.5 3.5t19.5 25.5q122 72 242.5 142.5t183.5 150t116 187.5t96 202q11 20 25 14.5t2 -36.5q-36 -86 -43 -142q1 -94 39 -142q40 -50 90 -50q9 3 30 66q22 63 37 96q44 -9 63 -43q20 -33 22 -66
q0 -114 -70.5 -235.5t-184.5 -121.5q-78 3 -129 78q-33 48 -35 135q-47 -76 -75 -108zM760 1285q8 -29 -0.5 -60t-31.5 -65q-14 -23 -29.5 -41.5t-32.5 -35.5q-5 -6 -16 -15t-23 -17t-23 -11.5t-16 2.5q-36 29 -71 59t-77 56q-7 5 -6.5 9.5t5.5 13.5l160 244q7 10 14 9.5
t15 -5.5q21 -12 42 -27t39 -32.5t31.5 -38t19.5 -45.5z" />
    <glyph glyph-name="Pa" unicode="&#xfb58;&#x640;&#xfe8e;" horiz-adv-x="569" 
d="M109 316q0 47 24.5 245t37 283.5t28.5 181.5t31 155q17 49 36.5 99t40.5 99q14 22 18 -7q-25 -166 -46 -344.5t-28.5 -255.5t-7.5 -90q-4 -62 -5 -97v-66q0 -126 67 -176q41 -27 81.5 -18t62 42t36.5 77.5t29 44.5q16 0 13 -32q-1 -54 -33.5 -175.5t-88 -199.5
t-134.5 -82q-81 3 -126 91q-41 87 -36 225zM682 -718q8 -28 -0.5 -58t-29.5 -62q-17 -26 -34.5 -48.5t-38.5 -42.5q-13 -14 -23 -20t-17 -7.5t-12 0.5t-9 5q-35 28 -68.5 56.5t-73.5 53.5q-5 7 -5 10.5t5 11.5l152 234q7 9 13.5 8.5t14.5 -5.5q20 -12 40.5 -25.5t37.5 -30.5
t30 -36.5t18 -43.5zM509 -1106q8 -28 -0.5 -58t-29.5 -62q-17 -26 -34.5 -48.5t-38.5 -42.5q-13 -14 -23 -20t-17 -7.5t-12 0.5t-9 5q-35 28 -68.5 56.5t-73.5 53.5q-5 7 -5 10.5t5 11.5l152 234q7 9 13.5 8.5t14.5 -5.5q20 -12 40.5 -25.5t37.5 -30.5t30 -36.5t18 -43.5z
M378 -751q0 -2 0.5 -2.5t0.5 -2.5v-15l-2 -15l-2 -6q-2 -6 -3.5 -12t-4.5 -12l-2 -6l-3 -6l-5 -10l-12 -19q-2 -2 -3.5 -4.5t-3.5 -5.5q-2 -4 -4.5 -7.5t-5.5 -7.5q-4 -6 -7 -9q-2 -2 -3.5 -5t-3.5 -5l-9 -11l-7 -9l-12 -13q-3 -4 -6.5 -7t-7.5 -7q-17 -17 -27 -22
q-2 -2 -3.5 -2.5t-3.5 -1.5q-8 -3 -13 -2q-8 0 -14 6l-7 6q-9 6 -17 14l-10 8q-14 12 -29 24.5t-30 23.5l-7 6q-10 8 -20 14.5t-21 13.5q-6 5 -6 9.5t5 12.5l153 233l3 4l3 3q4 4 12 2q1 -1 2 -1l3 -2l4 -2l16 -9l8 -5l12 -8t12 -9l4 -3l22 -18l17 -18l6 -7q9 -11 18 -28
q2 -3 3.5 -6t2.5 -6l3 -9l3 -10z" />
    <glyph glyph-name="BeHe" unicode="&#xfe91;&#xfba5;" horiz-adv-x="684" 
d="M219 246q28 25 70 45q35 18 71 16q57 -10 96 -10q48 -3 84 15q34 15 55 51q9 13 19 27.5t25.5 36t26.5 21.5q13 0 13 -24q0 -57 -67 -187q-36 -77 -78 -126q-62 -71 -141 -99q-21 -9 -65 -9q-9 0 -57 6q-34 6 -55 6q-65 0 -125 -51q-12 -12 -43 -36q-20 -17 -33 -14
q-15 6 1 53q17 42 47 91q42 62 81 110q34 45 75 78zM457 -574q-6 25 -19.5 45.5t-31.5 38t-39 32.5t-42 27q-8 5 -15 5.5t-14 -9.5l-160 -244q-5 -9 -5.5 -13.5t6.5 -9.5q42 -26 77 -56t71 -59q5 -6 16 -2.5t23 11.5t23 17t16 15q17 17 32.5 35.5t29.5 41.5q23 34 31.5 65
t0.5 60zM42 820q-21 -15 -28 -14.5t-1 14.5t25 36.5t42 46.5l9 9v3q-23 9 -46.5 23t-21.5 23q1 23 75 96q40 44 41 44q33 26 62 22q16 -1 29.5 -13t11.5 -30q-1 -12 -11 -21t-22 -8q-2 0 -14 8t-28 9q-15 3 -34 -10t-19 -20q-2 -20 19.5 -32.5t49.5 -14.5q18 -3 57 12
q24 8 57 27q9 4 12.5 2t2.5 -8q-2 -13 -77.5 -58.5t-130 -95.5t-60.5 -50z" />
    <glyph glyph-name="TeHe" unicode="&#xfe97;&#xfba5;" horiz-adv-x="684" 
d="M219 249q28 24 64.5 42t77.5 15q56 -7 99.5 -9.5t79.5 15.5q34 15 60 54t40.5 60.5t25.5 21.5q13 0 13 -24q0 -57 -51.5 -160.5t-93.5 -152.5q-62 -71 -106 -89.5t-100 -18.5q-9 0 -57 6q-34 6 -55 6q-65 0 -127 -51q-61 -53 -74 -50q-18 6 1 53q17 42 47 91
q39 62 77 108.5t79 82.5zM929 1015q-5 24 -18 43.5t-30 36.5t-37.5 30.5t-40.5 25.5q-8 5 -14.5 5.5t-13.5 -8.5l-152 -234q-5 -8 -5 -11.5t5 -10.5q40 -25 73.5 -53.5t68.5 -56.5q4 -3 9 -5t12 -0.5t17 7.5t23 20q21 20 38.5 42.5t34.5 48.5q21 32 29.5 62t0.5 58zM623 996
q-1 1 -1 4q-1 2 -1 3t-1 2l-3 9q-2 6 -4 9q-4 10 -11 20l-9 12l-12 14q-17 17 -33 29l-4 3q-6 5 -12 8.5t-12 7.5q-4 3 -8 5q-2 2 -4 3l-4 2q-2 2 -4 2.5t-4 2.5l-7 3q-1 1 -2 1l-2 1q-8 2 -15 -7q-1 -1 -1 -2l-153 -233q-5 -8 -5 -12t5 -9q0 -1 1 -1q20 -13 41 -29
q7 -5 14 -11q23 -17 43.5 -35t42.5 -35q6 -6 14 -6h7l6 2q8 3 19 12l5 4l10 10q5 3 8 8l6 6q3 2 5.5 5t4.5 5q0 1 2 3l16 20q3 3 7 9q2 2 3.5 5t3.5 5l5 7l12 18q0 1 2 3q2 4 5 7.5t5 8.5l5 9q0 1 0.5 1.5t0.5 1.5q2 4 3.5 8t3.5 8l4 12q0 2 0.5 3t0.5 3l3 12q0 2 0.5 4.5
t0.5 4.5v14q0 2 -0.5 4.5t-0.5 4.5q-1 2 -1 5q-1 2 -1 6zM40 1161q-21 -15 -28 -14.5t-1 14.5t25 36.5t42 46.5l9 9v3q-23 9 -46.5 23t-21.5 23q1 23 75 96q40 44 41 44q33 26 62 22q16 -1 29.5 -13t11.5 -30q-1 -12 -11 -21t-22 -8q-2 0 -14 8t-28 9q-15 3 -34 -10t-19 -20
q-2 -20 19.5 -32.5t49.5 -14.5q18 -3 57 12q24 8 57 27q9 4 12.5 2t2.5 -8q-2 -13 -77.5 -58.5t-130 -95.5t-60.5 -50z" />
    <glyph glyph-name="SeHe" unicode="&#xfe9b;&#xfba5;" horiz-adv-x="684" 
d="M219 249q28 24 64.5 42t77.5 15q56 -7 99.5 -9.5t79.5 15.5q34 15 60 54t40.5 60.5t25.5 21.5q13 0 13 -24q0 -57 -51.5 -160.5t-93.5 -152.5q-62 -71 -106 -89.5t-100 -18.5q-9 0 -57 6q-34 6 -55 6q-65 0 -127 -51q-61 -53 -74 -50q-18 6 1 53q17 42 47 91
q39 62 77 108.5t79 82.5zM974 970q8 -28 -0.5 -58t-29.5 -62q-17 -26 -34.5 -48.5t-38.5 -42.5q-13 -14 -23 -20t-17 -7.5t-12 0.5t-9 5q-35 28 -68.5 56.5t-73.5 53.5q-5 7 -5 10.5t5 11.5l152 234q7 9 13.5 8.5t14.5 -5.5q20 -12 40.5 -25.5t37.5 -30.5t30 -36.5t18 -43.5
zM836 1331q8 -28 -0.5 -58t-29.5 -62q-17 -26 -34.5 -48.5t-38.5 -42.5q-13 -14 -23 -20t-17 -7.5t-12 0.5t-9 5q-35 28 -68.5 56.5t-73.5 53.5q-5 7 -5 10.5t5 11.5l152 234q7 9 13.5 8.5t14.5 -5.5q20 -12 40.5 -25.5t37.5 -30.5t30 -36.5t18 -43.5zM658 978q2 -5 3.5 -9
t3.5 -9l3 -9q0 -4 1 -6q0 -2 0.5 -4t0.5 -4t0.5 -3t0.5 -3q0 -19 -4 -35q0 -2 -0.5 -3t-0.5 -3l-4 -12l-3 -6q-1 -2 -1.5 -5t-2.5 -5l-6 -12l-12 -19l-17 -25q-5 -8 -11 -15.5t-12 -15.5l-16 -18t-17 -17l-10 -10l-5 -4q-12 -10 -20.5 -13t-14.5 -1q-4 1 -6.5 2.5t-4.5 3.5
l-24 19l-10 9l-59 48l-7 5q-21 16 -41 29q-6 5 -6 9.5t5 12.5l153 233q7 11 16 9l2 -1q1 0 5 -2q2 -2 4 -2q13 -8 26 -16.5t26 -17.5l11 -9q11 -9 20 -18t17 -20l6 -8l9 -16zM33 1066q-21 -15 -28 -14.5t-1 14.5t25 36.5t42 46.5l9 9v3q-23 9 -46.5 23t-21.5 23q1 23 75 96
q40 44 41 44q33 26 62 22q16 -1 29.5 -13t11.5 -30q-1 -12 -11 -21t-22 -8q-2 0 -14 8t-28 9q-15 3 -34 -10t-19 -20q-2 -20 19.5 -32.5t49.5 -14.5q18 -3 57 12q24 8 57 27q9 4 12.5 2t2.5 -8q-2 -13 -77.5 -58.5t-130 -95.5t-60.5 -50z" />
    <glyph glyph-name="PeHe" unicode="&#xfb58;&#xfba5;" horiz-adv-x="684" 
d="M219 249q28 24 64.5 42t77.5 15q56 -7 99.5 -9.5t79.5 15.5q34 15 60 54t40.5 60.5t25.5 21.5q13 0 13 -24q0 -57 -51.5 -160.5t-93.5 -152.5q-62 -71 -106 -89.5t-100 -18.5q-9 0 -57 6q-34 6 -55 6q-65 0 -127 -51q-61 -53 -74 -50q-18 6 1 53q17 42 47 91
q39 62 77 108.5t79 82.5zM812 -643q-5 24 -18 43.5t-30 36.5t-37.5 30.5t-40.5 25.5q-8 5 -14.5 5.5t-13.5 -8.5l-152 -234q-5 -8 -5 -11.5t5 -10.5q40 -25 73.5 -53.5t68.5 -56.5q4 -3 9 -5t12 -0.5t17 7.5t23 20q21 20 38.5 42.5t34.5 48.5q21 32 29.5 62t0.5 58z
M639 -1031q-5 24 -18 43.5t-30 36.5t-37.5 30.5t-40.5 25.5q-8 5 -14.5 5.5t-13.5 -8.5l-152 -234q-5 -8 -5 -11.5t5 -10.5q40 -25 73.5 -53.5t68.5 -56.5q4 -3 9 -5t12 -0.5t17 7.5t23 20q21 20 38.5 42.5t34.5 48.5q21 32 29.5 62t0.5 58zM506 -662l-3 10l-3 9
q-1 3 -2.5 6t-3.5 6q-9 17 -18 28l-6 7l-17 18l-22 18l-4 3q-6 5 -12 9l-12 8l-8 5l-16 9l-4 2l-3 2q-1 0 -2 1q-8 2 -12 -2l-3 -3l-3 -4l-153 -233q-5 -8 -5 -12.5t6 -9.5q11 -7 21 -13.5t20 -14.5l7 -6q15 -11 30 -23.5t29 -24.5l10 -8q8 -8 17 -14l7 -6q6 -6 14 -6
q5 -1 13 2q2 1 3.5 1.5t3.5 2.5q10 5 27 22q4 4 7.5 7t6.5 7l12 13l7 9l9 11q2 2 3.5 5t3.5 5q3 3 7 9q3 4 5.5 7.5t4.5 7.5q2 3 3.5 5.5t3.5 4.5l12 19l5 10l3 6l2 6q3 6 4.5 12t3.5 12l2 6l2 15v15q0 2 -0.5 2.5t-0.5 2.5zM104 820q-21 -15 -28 -14.5t-1 14.5t25 36.5
t42 46.5l9 9v3q-23 9 -46.5 23t-21.5 23q1 23 75 96q40 44 41 44q33 26 62 22q16 -1 29.5 -13t11.5 -30q-1 -12 -11 -21t-22 -8q-2 0 -14 8t-28 9q-15 3 -34 -10t-19 -20q-2 -20 19.5 -32.5t49.5 -14.5q18 -3 57 12q24 8 57 27q9 4 12.5 2t2.5 -8q-2 -13 -77.5 -58.5
t-130 -95.5t-60.5 -50z" />
    <glyph glyph-name="NeHe" unicode="&#xfee7;&#xfba5;" horiz-adv-x="684" 
d="M219 249q28 24 64.5 42t77.5 15q56 -7 99.5 -9.5t79.5 15.5q34 15 60 54t40.5 60.5t25.5 21.5q13 0 13 -24q0 -57 -51.5 -160.5t-93.5 -152.5q-62 -71 -106 -89.5t-100 -18.5q-9 0 -57 6q-34 6 -55 6q-65 0 -127 -51q-61 -53 -74 -50q-18 6 1 53q17 42 47 91
q39 62 77 108.5t79 82.5zM712 998q-6 25 -19.5 45.5t-31.5 38t-39 32.5t-42 27q-8 5 -15 5.5t-14 -9.5l-160 -244q-5 -9 -5.5 -13.5t6.5 -9.5q42 -26 77 -56t71 -59q5 -6 16 -2.5t23 11.5t23 17t16 15q17 17 32.5 35.5t29.5 41.5q23 34 31.5 65t0.5 60zM43 1076
q-21 -15 -28 -14.5t-1 14.5t25 36.5t42 46.5l9 9v3q-23 9 -46.5 23t-21.5 23q1 23 75 96q40 44 41 44q33 26 62 22q16 -1 29.5 -13t11.5 -30q-1 -12 -11 -21t-22 -8q-2 0 -14 8t-28 9q-15 3 -34 -10t-19 -20q-2 -20 19.5 -32.5t49.5 -14.5q18 -3 57 12q24 8 57 27
q9 4 12.5 2t2.5 -8q-2 -13 -77.5 -58.5t-130 -95.5t-60.5 -50z" />
    <glyph glyph-name="YeHe" unicode="&#xfbfe;&#xfba5;" horiz-adv-x="684" 
d="M219 249q28 24 64.5 42t77.5 15q56 -7 99.5 -9.5t79.5 15.5q34 15 60 54t40.5 60.5t25.5 21.5q13 0 13 -24q0 -57 -51.5 -160.5t-93.5 -152.5q-62 -71 -106 -89.5t-100 -18.5q-9 0 -57 6q-34 6 -55 6q-65 0 -127 -51q-61 -53 -74 -50q-18 6 1 53q17 42 47 91
q39 62 77 108.5t79 82.5zM726 -739q-5 24 -18 43.5t-30 36.5t-37.5 30.5t-40.5 25.5q-8 5 -14.5 5.5t-13.5 -8.5l-152 -234q-5 -8 -5 -11.5t5 -10.5q40 -25 73.5 -53.5t68.5 -56.5q4 -3 9 -5t12 -0.5t17 7.5t23 20q21 20 38.5 42.5t34.5 48.5q21 32 29.5 62t0.5 58z
M420 -758q-1 1 -1 4q-1 2 -1 3t-1 2l-3 9q-2 6 -4 9q-4 10 -11 20l-9 12l-12 14q-8 8 -16 15t-17 14l-4 3q-6 5 -12 8.5t-12 7.5q-4 3 -8 5q-2 2 -4 3l-4 2q-2 2 -4 2.5t-4 2.5l-7 3q-1 1 -2 1l-2 1q-8 2 -15 -7q-1 -1 -1 -2l-153 -233q-5 -8 -5 -12t5 -9q0 -1 1 -1
q20 -13 41 -29q7 -5 14 -11q23 -17 43.5 -35t42.5 -35q6 -6 14 -6h7l6 2q8 3 19 12l5 4l10 10q5 3 8 8l6 6q3 2 5.5 5t4.5 5q0 1 2 3l16 20q3 3 7 9q2 2 3.5 5t3.5 5l5 7l12 18q0 1 2 3q2 4 5 7.5t5 8.5l5 9q0 1 0.5 1.5t0.5 1.5q2 4 3.5 8t3.5 8l4 12q0 2 0.5 3t0.5 3l3 12
q0 2 0.5 4.5t0.5 4.5v14q0 2 -0.5 4.5t-0.5 4.5q-1 2 -1 5q-1 2 -1 6zM122 758q-21 -15 -28 -14.5t-1 14.5t25 36.5t42 46.5l9 9v3q-23 9 -46.5 23t-21.5 23q1 23 75 96q40 44 41 44q33 26 62 22q16 -1 29.5 -13t11.5 -30q-1 -12 -11 -21t-22 -8q-2 0 -14 8t-28 9
q-15 3 -34 -10t-19 -20q-2 -20 19.5 -32.5t49.5 -14.5q18 -3 57 12q24 8 57 27q9 4 12.5 2t2.5 -8q-2 -13 -77.5 -58.5t-130 -95.5t-60.5 -50z" />
    <glyph glyph-name="Eshgh" unicode="&#xfecb;&#x640;&#xfeb8;&#xfed6;" horiz-adv-x="3922" 
d="M3247 924q-217 -134 -458 -242t-494.5 -180.5t-514 -104.5t-516.5 -14q-45 -273 -133 -480t-225 -343q-276 -268 -563 -240q-82 11 -143.5 44.5t-101.5 87t-58.5 126t-15.5 160.5q3 177 64 373t185 419q7 14 15.5 19.5t14 2.5t6 -13.5t-6.5 -26.5q-20 -45 -45.5 -103.5
t-49.5 -122t-43 -127t-26 -117.5q-14 -81 -4.5 -154t46.5 -128t102.5 -88t163.5 -35q153 3 268 45.5t197 108.5t135 148.5t82.5 165t38.5 157.5t4 127q-20 -5 -41 -6t-40.5 0.5t-36.5 5t-28 7.5q-47 13 -67.5 51t-6.5 89l60 161q9 22 23.5 44t32.5 38.5t37.5 25t37.5 4.5
q33 -6 56 -24.5t37.5 -42.5t22.5 -51t13 -52q183 -17 373 -8.5t380.5 39t379 81.5t368.5 118.5t349.5 149.5t322.5 174q-32 16 -54 29t-32 27.5t-7.5 33t20.5 45.5q12 17 42 60t81 97q51 57 99 83.5t93 30.5q26 2 50 -8.5t37 -35.5q13 -26 3 -49.5t-37 -30.5q-14 -2 -30 9
t-40 19q-14 5 -30.5 4.5t-33 -6t-31.5 -14t-27 -20.5q-11 -10 -21 -25t-13 -32q-2 -12 2.5 -21.5t13 -16.5t19.5 -12.5t22 -8.5q29 -11 66 -13t67 6q61 15 116.5 37.5t100.5 37.5q18 4 20 -3t-5.5 -18t-20 -24t-22.5 -21q-85 -45 -165 -99t-159 -110t-158.5 -112.5
t-162.5 -107.5zM2680 2038q8 -28 -0.5 -58t-29.5 -62q-17 -26 -34.5 -48.5t-38.5 -42.5q-13 -14 -23 -20t-17 -7.5t-12 0.5t-9 5q-35 28 -68.5 56.5t-73.5 53.5q-5 7 -5 10.5t5 11.5l152 234q7 9 13.5 8.5t14.5 -5.5q20 -12 40.5 -25.5t37.5 -30.5t30 -36.5t18 -43.5z
M2542 2399q8 -28 -0.5 -58t-29.5 -62q-17 -26 -34.5 -48.5t-38.5 -42.5q-13 -14 -23 -20t-17 -7.5t-12 0.5t-9 5q-35 28 -68.5 56.5t-73.5 53.5q-5 7 -5 10.5t5 11.5l152 234q7 9 13.5 8.5t14.5 -5.5q20 -12 40.5 -25.5t37.5 -30.5t30 -36.5t18 -43.5zM2364 2046
q2 -5 3.5 -9t3.5 -9l3 -9q0 -4 1 -6q0 -2 0.5 -4t0.5 -4t0.5 -3t0.5 -3q0 -19 -4 -35q0 -2 -0.5 -3t-0.5 -3l-4 -12l-3 -6q-1 -2 -1.5 -5t-2.5 -5l-6 -12l-12 -19l-17 -25q-5 -8 -11 -15.5t-12 -15.5l-16 -18t-17 -17l-10 -10l-5 -4q-12 -10 -20.5 -13t-14.5 -1
q-4 1 -6.5 2.5t-4.5 3.5l-24 19l-10 9l-59 48l-7 5q-21 16 -41 29q-6 5 -6 9.5t5 12.5l153 233q7 11 16 9l2 -1q1 0 5 -2q2 -2 4 -2q13 -8 26 -16.5t26 -17.5l11 -9q11 -9 20 -18t17 -20l6 -8l9 -16zM1155 1511q8 -28 -0.5 -58t-29.5 -62q-17 -26 -34.5 -48.5t-38.5 -42.5
q-13 -14 -23 -20t-17 -7.5t-12 0.5t-9 5q-35 28 -68.5 56.5t-73.5 53.5q-5 7 -5 10.5t5 11.5l152 234q7 9 13.5 8.5t14.5 -5.5q20 -12 40.5 -25.5t37.5 -30.5t30 -36.5t18 -43.5zM849 1492q0 -4 1 -6q0 -3 1 -5q0 -2 0.5 -4.5t0.5 -4.5v-14q0 -2 -0.5 -4.5t-0.5 -4.5l-3 -12
q0 -2 -0.5 -3t-0.5 -3l-4 -12q-2 -4 -3.5 -8t-3.5 -8q0 -1 -0.5 -1.5t-0.5 -1.5l-5 -9q-2 -5 -5 -8.5t-5 -7.5q-2 -2 -2 -3l-12 -18l-5 -7q-2 -2 -3.5 -5t-3.5 -5q-4 -6 -7 -9l-16 -20q-2 -2 -2 -3q-2 -2 -4.5 -5t-5.5 -5l-6 -6q-3 -5 -8 -8l-10 -10l-5 -4q-11 -9 -19 -12
l-6 -2h-7q-8 0 -14 6q-22 17 -42.5 35t-43.5 35q-7 6 -14 11q-21 16 -41 29q-1 0 -1 1q-5 5 -5 9t5 12l153 233q0 1 1 2q7 9 15 7l2 -1q1 0 2 -1l7 -3q2 -2 4 -2.5t4 -2.5l4 -2t4 -3q4 -2 8 -5q6 -4 12 -7.5t12 -8.5l4 -3q16 -12 33 -29l12 -14l9 -12q7 -10 11 -20
q2 -3 4 -9l3 -9q1 -1 1 -2t1 -3q0 -3 1 -4z" />
    <glyph glyph-name="KafChasbanKeshideh5" unicode="&#x640;&#xfb8f;" horiz-adv-x="2549" 
d="M2009 294q-220 -121 -504 -190q-399 -102 -871 -102q-288 0 -402 49q-144 60 -144 230q0 21 1 45q12 118 34 210q23 93 43 93q12 0 12 -45q0 -111 97 -168q141 -86 497 -86q432 0 858 99q231 53 379 119q246 105 386 249q18 19 34 40q44 59 80 152l52 183q21 67 46 121
q28 60 60 125q12 27 23 23q8 -2 8 -14q-21 -92 -41.5 -183.5t-39.5 -181.5q-68 -336 -68 -513l-18 -72q-9 -51 -18 -69q-27 -42 -48 -63q-22 -22 -45 -34q0 42 8.5 114t16 123t16.5 124q1 20 5.5 48.5t-5.5 28.5q-72 -142 -174 -246q-114 -115 -278 -209zM2850 1639
q63 48 125 87t125 81q873 589 1011 697q157 122 164 131q32 21 13.5 -24.5t-148.5 -205.5q-226 -204 -574 -436.5t-722 -453.5q-25 -17 -48.5 -31.5t-45.5 -26.5q-50 -30 -49 -4q0 11 67 101q42 53 82 85z" />
    <glyph glyph-name="KafChasbanKeshideh7" unicode="&#x640;&#x640;&#xfb8f;" horiz-adv-x="2915" 
d="M589 347q192 -22 411 -21q538 1 986 89q314 72 530 182q142 81 232 180q18 19 34 40q60 69 88 152l52 183q26 67 51 121q27 60 66 125q12 21 19 20q6 -1 6 -11q-21 -92 -41.5 -183.5t-39.5 -181.5q-68 -336 -68 -513l-18 -72q-9 -51 -18 -69q-27 -42 -48 -63
q-22 -22 -45 -34q0 42 8.5 114t16 123t16.5 124q1 20 5.5 48.5t-5.5 28.5q-72 -127 -174 -231q-62 -62 -137 -115q-269 -174 -665 -268q-467 -104 -1012 -113q-126 2 -177.5 5.5t-147 16t-198.5 48.5q-109 37 -151 109q-45 80 -45 248q0 64 16 64q4 1 20 -12
q113 -89 433 -134zM3217 1620q63 48 125 87t125 81q873 589 1011 697q157 122 164 131q32 21 13.5 -24.5t-148.5 -205.5q-226 -204 -574 -436.5t-722 -453.5q-25 -17 -48.5 -31.5t-45.5 -26.5q-50 -30 -49 -4q0 11 67 101q42 53 82 85z" />
    <glyph glyph-name="KafChasbanKeshideh9" unicode="&#x640;&#x640;&#x640;&#xfb8f;" horiz-adv-x="3721" 
d="M662 374q194 -32 395 -44q202 -11 508.5 -7.5t562 23.5t452.5 56.5t340 76.5q144 40 286 97q118 47 225 112q91 63 158 141q56 66 89 152l52 183q26 67 52 124t55 120q12 25 21 24q11 -1 10 -13q-19 -92 -40 -184q-20 -91 -39 -181q-68 -336 -68 -513q-9 -21 -18 -72
t-18 -69q-27 -42 -48 -63q-22 -22 -45 -34q0 42 12 141q5 45 12 100q8 56 17 120q1 20 7 53q3 24 -7 24l-32 -56q-77 -123 -212 -213q-78 -53 -178 -107q-113 -59 -276 -121q-157 -60 -333 -98q-349 -80 -680 -114q-334 -38 -730 -29q-315 8 -507 31q-193 24 -296 60
q-109 37 -151 109q-45 80 -45 254q0 64 16 64q4 1 20 -12q113 -89 433 -134v-1zM4022 1644q63 48 125 87t125 81q873 589 1011 697q157 122 164 131q32 21 13.5 -24.5t-148.5 -205.5q-226 -204 -574 -436.5t-722 -453.5q-25 -17 -48.5 -31.5t-45.5 -26.5q-50 -30 -49 -4
q0 11 67 101q42 53 82 85z" />
    <glyph glyph-name="KafChasbanKeshideh11" unicode="&#x640;&#x640;&#x640;&#x640;&#xfb8f;" horiz-adv-x="4067" 
d="M589 290q305 -41 805 -41q1349 0 2192 352q96 41 192 105.5t165 146.5q49 59 78 152l52 183q26 67 51 121q29 60 50.5 104t29.5 43q11 -1 10 -13q-19 -92 -40 -184q-20 -91 -39 -181q-68 -336 -68 -513q-9 -21 -18 -72t-18 -69q-27 -42 -48 -63q-22 -22 -45 -34
q0 42 12 141q5 45 12 100q8 56 17 120q1 20 7 53q3 24 -7 24q-26 -56 -71 -110.5t-103 -105.5t-124.5 -96t-134.5 -82q-423 -215 -1046 -335q-605 -117 -1275 -117q-388 0 -637 32q-169 22 -272 58q-109 37 -151 109q-45 80 -45 254q0 64 16 64q4 1 20 -12q113 -89 433 -134
zM4382 1660q63 48 125 87t125 81q873 589 1011 697q157 122 164 131q32 21 13.5 -24.5t-148.5 -205.5q-226 -204 -574 -436.5t-722 -453.5q-25 -17 -48.5 -31.5t-45.5 -26.5q-50 -30 -49 -4q0 11 67 101q42 53 82 85z" />
    <glyph glyph-name="GafChasbanKeshideh5" unicode="&#x640;&#xfb93;" horiz-adv-x="2549" 
d="M2009 294q-220 -121 -504 -190q-399 -102 -871 -102q-288 0 -402 49q-144 60 -144 230q0 21 1 45q12 118 34 210q23 93 43 93q12 0 12 -45q0 -111 97 -168q141 -86 497 -86q432 0 858 99q231 53 379 119q246 105 386 249q18 19 34 40q44 59 80 152l52 183q21 67 46 121
q28 60 60 125q12 27 23 23q8 -2 8 -14q-21 -92 -41.5 -183.5t-39.5 -181.5q-68 -336 -68 -513l-18 -72q-9 -51 -18 -69q-27 -42 -48 -63q-22 -22 -45 -34q0 42 8.5 114t16 123t16.5 124q1 20 5.5 48.5t-5.5 28.5q-72 -142 -174 -246q-114 -115 -278 -209zM2850 1639
q63 48 125 87t125 81q873 589 1011 697q157 122 164 131q32 21 13.5 -24.5t-148.5 -205.5q-226 -204 -574 -436.5t-722 -453.5q-25 -17 -48.5 -31.5t-45.5 -26.5q-50 -30 -49 -4q0 11 67 101q42 53 82 85zM3853 2411q-85 -61 -285 -194q-7 -1 3 19q11 20 38 51
q47 37 141 103q94 67 256 178q32 16 -33 -62z" />
    <glyph glyph-name="GafChasbanKeshideh7" unicode="&#x640;&#x640;&#xfb93;" horiz-adv-x="2915" 
d="M589 347q192 -22 411 -21q538 1 986 89q314 72 530 182q142 81 232 180q18 19 34 40q60 69 88 152l52 183q26 67 51 121q27 60 66 125q12 21 19 20q6 -1 6 -11q-21 -92 -41.5 -183.5t-39.5 -181.5q-68 -336 -68 -513l-18 -72q-9 -51 -18 -69q-27 -42 -48 -63
q-22 -22 -45 -34q0 42 8.5 114t16 123t16.5 124q1 20 5.5 48.5t-5.5 28.5q-72 -127 -174 -231q-62 -62 -137 -115q-269 -174 -665 -268q-467 -104 -1012 -113q-126 2 -177.5 5.5t-147 16t-198.5 48.5q-109 37 -151 109q-45 80 -45 248q0 64 16 64q4 1 20 -12
q113 -89 433 -134zM3217 1620q63 48 125 87t125 81q873 589 1011 697q157 122 164 131q32 21 13.5 -24.5t-148.5 -205.5q-226 -204 -574 -436.5t-722 -453.5q-25 -17 -48.5 -31.5t-45.5 -26.5q-50 -30 -49 -4q0 11 67 101q42 53 82 85zM4244 2383q-85 -61 -285 -194
q-7 -1 3 19q11 20 38 51q47 37 141 103q94 67 256 178q32 16 -33 -62z" />
    <glyph glyph-name="GafChasbanKeshideh9" unicode="&#x640;&#x640;&#x640;&#xfb93;" horiz-adv-x="3721" 
d="M662 374q194 -32 395 -44q202 -11 508.5 -7.5t562 23.5t452.5 56.5t340 76.5q144 40 286 97q118 47 225 112q91 63 158 141q56 66 89 152l52 183q26 67 52 124t55 120q12 25 21 24q11 -1 10 -13q-19 -92 -40 -184q-20 -91 -39 -181q-68 -336 -68 -513q-9 -21 -18 -72
t-18 -69q-27 -42 -48 -63q-22 -22 -45 -34q0 42 12 141q5 45 12 100q8 56 17 120q1 20 7 53q3 24 -7 24l-32 -56q-77 -123 -212 -213q-78 -53 -178 -107q-113 -59 -276 -121q-157 -60 -333 -98q-349 -80 -680 -114q-334 -38 -730 -29q-315 8 -507 31q-193 24 -296 60
q-109 37 -151 109q-45 80 -45 254q0 64 16 64q4 1 20 -12q113 -89 433 -134v-1zM4022 1644q63 48 125 87t125 81q873 589 1011 697q157 122 164 131q32 21 13.5 -24.5t-148.5 -205.5q-226 -204 -574 -436.5t-722 -453.5q-25 -17 -48.5 -31.5t-45.5 -26.5q-50 -30 -49 -4
q0 11 67 101q42 53 82 85zM5038 2411q-85 -61 -285 -194q-7 -1 3 19q11 20 38 51q47 37 141 103q94 67 256 178q32 16 -33 -62z" />
    <glyph glyph-name="GafChasbanKeshideh11" unicode="&#x640;&#x640;&#x640;&#x640;&#xfb93;" horiz-adv-x="4067" 
d="M589 290q305 -41 805 -41q1349 0 2192 352q96 41 192 105.5t165 146.5q49 59 78 152l52 183q26 67 51 121q29 60 50.5 104t29.5 43q11 -1 10 -13q-19 -92 -40 -184q-20 -91 -39 -181q-68 -336 -68 -513q-9 -21 -18 -72t-18 -69q-27 -42 -48 -63q-22 -22 -45 -34
q0 42 12 141q5 45 12 100q8 56 17 120q1 20 7 53q3 24 -7 24q-26 -56 -71 -110.5t-103 -105.5t-124.5 -96t-134.5 -82q-423 -215 -1046 -335q-605 -117 -1275 -117q-388 0 -637 32q-169 22 -272 58q-109 37 -151 109q-45 80 -45 254q0 64 16 64q4 1 20 -12q113 -89 433 -134
zM4382 1660q63 48 125 87t125 81q873 589 1011 697q157 122 164 131q32 21 13.5 -24.5t-148.5 -205.5q-226 -204 -574 -436.5t-722 -453.5q-25 -17 -48.5 -31.5t-45.5 -26.5q-50 -30 -49 -4q0 11 67 101q42 53 82 85zM5377 2439q-85 -61 -285 -194q-7 -1 3 19q11 20 38 51
q47 37 141 103q94 67 256 178q32 16 -33 -62z" />
    </font>
</defs>
</svg>
